img image001 image001 image001 image001 image001 image001 image001 image001 image001 image001 image001 image001 image001 image001 image001

Planets Sun Sun Sun
Статистика раздачи
Автор: Nickolas3434 | Размер: 650.92 МБ | Добавлен: 26 ноя 2014
Раздают: 123    Качают: 7
Скачать торрент
Скачать торрент
Описание торрента

СообщениеДобавлено: 26 ноя 2014 

Информация о фильме
Оригинальное название: Теория заговора. Торговцы водой
Год выпуска: 2014
Жанр: Документальный
Выпущено: Первый канал HD

Описание:
Жажда заработать породила заговор. Сегодня нас убедили, что нужно пить "не меньше двух литров воды в день". Зато взамен нам обещают красоту и здоровье.
Вода сейчас стоит в два раза дороже бензина! И это не в пустыне, где вода дороже золота. А в России, которая занимает одно из первых мест в мире по запасам пресной воды. Торговцы водой умудряются продавать ее нам по бешеной цене. И зарабатывать миллиарды. Как они это делают?

Файл
Качество: HDTVRip 720p
Видео: 1280 x 720 (1.778), 25.000 fps, AVC, 1732 Кбит/сек
Аудио: AAC, 192 Кбит/сек, 2 канала, 44,1 КГц
Продолжительность: ~00:47:14
Язык: Русский

Общее
Полное имя : C:Теория заговора. Торговцы водой - документальный фильм.mp4
Формат : MPEG-4
Профиль формата : Base Media / Version 2
Идентификатор кодека : mp42
Размер файла : 651 Мбайт
Продолжительность : 47 м.
Режим общего битрейта : Переменный
Общий поток : 1927 Кбит/сек
Дата кодирования : UTC 2014-11-23 10:25:48
Дата пометки : UTC 2014-11-23 10:25:48
gsst : 0
gstd : 2834343
gssd : B4A7DDA82HH1416738787404773

Видео
Идентификатор : 1
Формат : AVC
Формат/Информация : Advanced Video Codec
Профиль формата : High@L3.1
Параметр CABAC формата : Да
Параметр ReFrames формата : 1 кадр
Идентификатор кодека : avc1
Идентификатор кодека/Информация : Advanced Video Coding
Продолжительность : 47 м.
Битрейт : 1732 Кбит/сек
Максимальный битрейт : 12,1 Мбит/сек
Ширина : 1280 пикселей
Высота : 720 пикселей
Соотношение сторон : 16:9
Режим частоты кадров : Постоянный
Частота кадров : 25,000 кадров/сек
Цветовое пространство : YUV
Субдискретизация насыщенности : 4:2:0
Битовая глубина : 8 бит
Тип развёртки : Прогрессивная
Бит/(Пиксели*Кадры) : 0.075
Размер потока : 585 Мбайт (90%)
Дата пометки : UTC 2014-11-23 10:26:19

Аудио
Идентификатор : 2
Формат : AAC
Формат/Информация : Advanced Audio Codec
Профиль формата : LC
Идентификатор кодека : 40
Продолжительность : 47 м.
Вид битрейта : Переменный
Битрейт : 192 Кбит/сек
Максимальный битрейт : 201 Кбит/сек
Каналы : 2 канала
Расположение каналов : Front: L R
Частота : 44,1 КГц
Метод сжатия : С потерями
Размер потока : 64,9 Мбайт (10%)
Дата кодирования : UTC 2014-11-23 10:26:09
Дата пометки : UTC 2014-11-23 10:26:19





   Похожие торренты   Торрент   Размер 
В этой теме нет новых непрочитанных сообщений. Теория заговора.Торговцы водой (2014) HDTVRip от ExKinoRay

73 | 7

683.89 МБ

В этой теме нет новых непрочитанных сообщений. Теория заговора. Рыба [Эфир 21.02] (2016) HDTVRip от GeneralFilm

290 | 7

629.61 МБ

В этой теме нет новых непрочитанных сообщений. Теория заговора. Мясо [Эфир 14.05] (2016) HDTVRip от GeneralFilm

56 | 0

623.05 МБ

В этой теме нет новых непрочитанных сообщений. Теория заговора. Бакалея [Эфир 09.04] (2016) HDTVRip от GeneralFilm

183 | 3

610.2 МБ

В этой теме нет новых непрочитанных сообщений. Теория заговора. ГОСТы [Эфир 30.01] (2016) HDTVRip от GeneralFilm

641 | 21

624.79 МБ

В этой теме нет новых непрочитанных сообщений. Теория заговора. Соль [Эфир 06.02] (2016) HDTVRip от GeneralFilm

703 | 62

628.55 МБ

В этой теме нет новых непрочитанных сообщений. Теория заговора. Молоко [Эфир 21.05] (2016) HDTVRip от GeneralFilm

42 | 0

626.67 МБ




Вы не можете начинать темы
Вы не можете отвечать на сообщения
Вы не можете редактировать свои сообщения
Вы не можете удалять свои сообщения
Вы не можете добавлять вложения

Перейти:  
Для Мосгорсуда, Роскомнадзора и рекламодателей: mosgorsud-torrent[собачка]yandex.ru
 Вход
ppkBB3cker v.2 © 2008-2014 @ PPK
[ Time : 0.043s | 15 Queries | GZIP : Off ]

Торрент трекер RUTOR.IN, Не можете зайти на rutor.org? Какой новый адрес рутор? Какое зеркало рутор? Не работает rutor.org и зеркала? Тогда наш торрент специально для вас. Rutor.in неофициальное зеркало rutor. В случае если у Вас заблокирован rutor или вдруг Вы не можете на него зайти, то Вы без труда сможете скачать бесплатно и без рекламы последние новинки кино, игр, сериалов и прочего у нас, на Rutor.in. Не нужно использовать прокси, чтобы зайти на рутор, достаточно воспользоваться нашим ресурсом. Все новые фильмы, игры, сериалы, книги и музыка за 2013 и 2014 годы через торрент бесплатно. Скачивайте фильмы в хорошем качестве, игры для пк, xbox, playstation без регистрации. У нас вы найдете новые Зарубежные сериалы и Русские сериалы 2013, 2014, 2015 годов. Оставайтесь с нами, качайте любимые фильмы, игры, сериалы, книги и музыку.