img image001 image001 image001 image001 image001 image001 image001 image001 image001 image001 image001 image001 image001 image001 image001

Planets Sun Sun Sun
Статистика раздачи
Автор: Nickolas3434 | Размер: 2.98 ГБ | Добавлен: 17 дек 2014
Раздают: 45    Качают: 12
Скачать торрент
Скачать торрент
Описание торрента

СообщениеДобавлено: 17 дек 2014 

Информация о фильме
Название: Всё в саду
Год выхода: 1992
Жанр: Драма
Режиссер: Валерий Маслюк
В ролях:
Ричард – народный артист СССР Ростислав Янковский
Дженни – заслуженная артистка БССР Белла Масумян
Роджер – Андрей Душечкин
Джек – Владимир Шелестов
Миссис Туз – заслуженная артистка БССР Людмила Былинская
Чак – Вячеслав Солодилов
Берилл – Лина Цветкова
Шилберт – Валерий Шушкевич
Луиза – Татьяна Гаркуша
Пери – Валерий Бондаренко
Цинтия – Елена Пастревич
О фильме:
Пьесу «Всё в саду» американский драматург Эдвард Олби написал в 1967 году. В те же годы она широко шла в театрах нашей страны, но воспринималась как рассказ об «их нравах». Изменилось время. В России произошла смена формаций, и «их нравы» стали нашими. Деньги из средства существования превратились в цель. Эта «светлая» цель манит и искушает: «забудьте обо всём и обо всех, пуститесь во все тяжкие!»
Голос змея-искусителя услышали и герои Олби. Дженни и Роберт – люди не бедные. У них есть дом, большой сад, машина, сын учится в престижной школе. Но ведь друзья и знакомые имеют больше. И вот, как в сказке, в доме появляется таинственная незнакомка. Услышав её предложение, немного посомневавшись, Дженни решается на поступок, который ранее посчитала бы весьма сомнительным. Что ж: «Ведь надо жить прилично, не хуже других».
Будет ли семья счастлива, достигнув материального благополучия? Не потребует ли этот «молох» новых человеческих жертв? Не превратятся ли вчерашние благонравные граждане в банальных уголовных преступников?
Доп. информация:
Художник-постановщик: заслуженный деятель искусств БССР Юрий Тур
Художник по костюмам: Наталья Рудзина
Премьера: 1984 году
Благодарность:
Исходник для данной раздачи, записан с цифрового наземного канала, т.е. DVB-Т, любезно предоставлен PavelDAS
За что ему большое спасибо!
Запись потока *.ts с наземного цифрового телеканала "Беларусь 3", ремукс в *.mpg программой VideoReDo.

Страна: Республика Беларусь
Студия: Национальный академический драматический театр им. Максима Горького, Минск
Продолжительность: 2-а действия 01:15:25 + 00:51:26
Перевод: Не требуется
Язык: Русский
Файл
Кодек: MPEG-PS
Качество: DVB
Видео 1: MPEG2 Video 720x576 (4:3) 25.00fps, 3 036Кбит/сек
Видео 2: MPEG2 Video 720x576 (4:3) 25.00fps, 3 039Кбит/сек
Звук: MPEG Audio 48000Hz stereo 256kbps, 2 канала
Семпл
Код:
General
Complete name                  : D:ТеатрВсё в саду (1992)Всё в саду (1992)Всё в саду_01_(1992).mpg
Format                         : MPEG-PS
File size                      : 1.77 GiB
Duration                       : 1h 15mn
Overall bit rate mode          : Variable
Overall bit rate               : 3 359 Kbps
Video
ID                             : 224 (0xE0)
Format                         : MPEG Video
Format version                 : Version 2
Format profile                 : Main@Main
Format settings, BVOP          : Yes
Format settings, Matrix        : Custom
Format settings, GOP           : M=3, N=15
Format settings, picture struc : Frame
Duration                       : 1h 15mn
Bit rate mode                  : Variable
Bit rate                       : 3 036 Kbps
Maximum bit rate               : 9 500 Kbps
Width                          : 720 pixels
Height                         : 576 pixels
Display aspect ratio           : 4:3
Frame rate                     : 25.000 fps
Standard                       : PAL
Color space                    : YUV
Chroma subsampling             : 4:2:0
Bit depth                      : 8 bits
Scan type                      : Interlaced
Scan order                     : Top Field First
Compression mode               : Lossy
Bits/(Pixel*Frame)             : 0.293
Time code of first frame       : 00:00:00:00
Time code source               : Group of pictures header
GOP, Open/Closed               : Open
Stream size                    : 1.60 GiB (90%)
GOP, Open/Closed of first fram : Closed
Audio
ID                             : 192 (0xC0)
Format                         : MPEG Audio
Format version                 : Version 1
Format profile                 : Layer 2
Duration                       : 1h 15mn
Bit rate mode                  : Constant
Bit rate                       : 256 Kbps
Channel(s)                     : 2 channels
Sampling rate                  : 48.0 KHz
Compression mode               : Lossy
Stream size                    : 138 MiB (8%)


Код:
General
Complete name                  : D:ТеатрВсё в саду (1992)Всё в саду (1992)Всё в саду_02_(1992).mpg
Format                         : MPEG-PS
File size                      : 1.21 GiB
Duration                       : 51mn 26s
Overall bit rate mode          : Variable
Overall bit rate               : 3 361 Kbps
Video
ID                             : 224 (0xE0)
Format                         : MPEG Video
Format version                 : Version 2
Format profile                 : Main@Main
Format settings, BVOP          : Yes
Format settings, Matrix        : Custom
Format settings, GOP           : M=3, N=15
Format settings, picture struc : Frame
Duration                       : 51mn 26s
Bit rate mode                  : Variable
Bit rate                       : 3 039 Kbps
Maximum bit rate               : 9 500 Kbps
Width                          : 720 pixels
Height                         : 576 pixels
Display aspect ratio           : 4:3
Frame rate                     : 25.000 fps
Standard                       : PAL
Color space                    : YUV
Chroma subsampling             : 4:2:0
Bit depth                      : 8 bits
Scan type                      : Interlaced
Scan order                     : Top Field First
Compression mode               : Lossy
Bits/(Pixel*Frame)             : 0.293
Time code of first frame       : 00:00:00:00
Time code source               : Group of pictures header
GOP, Open/Closed               : Open
Stream size                    : 1.09 GiB (90%)
GOP, Open/Closed of first fram : Closed
Audio
ID                             : 192 (0xC0)
Format                         : MPEG Audio
Format version                 : Version 1
Format profile                 : Layer 2
Duration                       : 51mn 26s
Bit rate mode                  : Constant
Bit rate                       : 256 Kbps
Channel(s)                     : 2 channels
Sampling rate                  : 48.0 KHz
Compression mode               : Lossy
Delay relative to video        : 8ms
Stream size                    : 94.2 MiB (8%)




   Похожие торренты   Торрент   Размер 
В этой теме нет новых непрочитанных сообщений. Спектакль - Тартюф (2008) DVB-AVC от AND03AND

19 | 10

1.53 ГБ

В этой теме нет новых непрочитанных сообщений. Спектакль - Чайка (1999) DVB от AND03AND

13 | 33

3.4 ГБ

В этой теме нет новых непрочитанных сообщений. Спектакль - Чудаки (2007) DVB от AND03AND

15 | 22

3.4 ГБ

В этой теме нет новых непрочитанных сообщений. Спектакль - У Синей бухты (1976) DVB от AND03AND

11 | 5

932.62 МБ

В этой теме нет новых непрочитанных сообщений. Спектакль - Извещение Марии (2007) DVB от AND03AND

23 | 10

3.71 ГБ

В этой теме нет новых непрочитанных сообщений. Спектакль - Пока я жив, я с тобой (1986) DVB от AND03AND

5 | 1

732.77 МБ

В этой теме нет новых непрочитанных сообщений. Спектакль - Валентинов день (2007) DVB от AND03AND

4 | 9

3.45 ГБ




Вы не можете начинать темы
Вы не можете отвечать на сообщения
Вы не можете редактировать свои сообщения
Вы не можете удалять свои сообщения
Вы не можете добавлять вложения

Перейти:  
Для Мосгорсуда, Роскомнадзора и рекламодателей: mosgorsud-torrent[собачка]yandex.ru
 Вход
ppkBB3cker v.2 © 2008-2014 @ PPK
[ Time : 0.102s | 15 Queries | GZIP : Off ]

Торрент трекер RUTOR.IN, Не можете зайти на rutor.org? Какой новый адрес рутор? Какое зеркало рутор? Не работает rutor.org и зеркала? Тогда наш торрент специально для вас. Rutor.in неофициальное зеркало rutor. В случае если у Вас заблокирован rutor или вдруг Вы не можете на него зайти, то Вы без труда сможете скачать бесплатно и без рекламы последние новинки кино, игр, сериалов и прочего у нас, на Rutor.in. Не нужно использовать прокси, чтобы зайти на рутор, достаточно воспользоваться нашим ресурсом. Все новые фильмы, игры, сериалы, книги и музыка за 2013 и 2014 годы через торрент бесплатно. Скачивайте фильмы в хорошем качестве, игры для пк, xbox, playstation без регистрации. У нас вы найдете новые Зарубежные сериалы и Русские сериалы 2013, 2014, 2015 годов. Оставайтесь с нами, качайте любимые фильмы, игры, сериалы, книги и музыку.