img image001 image001 image001 image001 image001 image001 image001 image001 image001 image001 image001 image001 image001 image001 image001

Planets Sun Sun Sun
Статистика раздачи
Автор: Nickolas3434 | Размер: 3.71 ГБ | Добавлен: 17 дек 2014
Раздают: 32    Качают: 12
Скачать торрент
Скачать торрент
Описание торрента

СообщениеДобавлено: 17 дек 2014 

Информация о фильме
Название: Извещение Марии
Год выхода: 2007
Жанр: Драма
Режиссер: народный артист Беларуси Борис Луценко
В ролях:
Анн Веркор – заслуженный артист Российской Федерации Олег Корчиков
Мать – народная артистка Беларуси Белла Масумян
Виолена – Анастасия Шпаковская
Пьер де Краон – Иван Мацкевич
Жак Ури – Сергей Чекерес
Мара – Юлия Полубинская
Глухонемой, Неизвестный – Виктор Гудинович
Звонарь – Богдан Берёзкин
О фильме:
Глава семьи Анн Веркор отправляется в Иерусалим поклониться Богу. Его младшая дочь Мара не может спокойно смотреть на счастье своей родной сестры, собирающейся замуж за красавца Жака Ури. Но что это? Уж не грезит ли Мара наяву? Виолена целует в губы… прокажённого Пьера де Краона! Какое немыслимое грехопадение накануне свадьбы!.. Правда, Жак не из тех, кто верит россказням и слухам. Однако есть доказательство, которое предоставит ему сама Виолена. Это след проказы на её теле...
Много бед и несчастий ждут героев спектакля «Извещение Марии» на пути к единственно верной истине: «Что стоит мир в сравнении с жизнью? И что стоит жизнь, если её не отдать?» Отдать, приняв всю скорбь мира, боль разгромленной и униженной Родины, и боль всех христиан Земли за Веру, расчленённую надвое.
Для нас, людей, живущих в начале третьего тысячелетия христианской эры, так же болезненны и остры вопросы обретения или утраты веры, поисков духовного пути и внутренних ориентиров, как и для людей того далёкого времени.
Доп. информация:
Автор пьесы: Поль Клодель
Перевод: О.Седаковой
Сценография: Людмила Гончарова
Музыка: Александр Ренанский
Костюмы: Нина Гурло
Благодарность:
Исходник для данной раздачи, записан с цифрового наземного канала, т.е. DVB-Т, любезно предоставлен PavelDAS
За что ему большое спасибо!
Запись потока *.ts с наземного цифрового телеканала "Беларусь 3", ремукс в *.mpg программой VideoReDo.

Страна: Республика Беларусь
Студия: Национальный академический драматический театр им. Максима Горького, Минск
Продолжительность: 2-а действия 01:42:50 + 00:58:00
Перевод: Не требуется
Язык: Русский
Файл
Кодек: MPEG-PS
Качество: DVB
Видео 1: MPEG2 Video 720x576 (4:3) 25.00fps, 2 979Кбит/сек
Видео 2: MPEG2 Video 720x576 (4:3) 25.00fps, 2 979Кбит/сек
Звук: MPEG Audio 48000Hz stereo 256kbps, 2 канала
Семпл
Код:
General
Complete name                  : D:ТеатрИзвещение Марии (2007)Извещение Марии (2007)Извещение Марии_01_(2007).mpg
Format                         : MPEG-PS
File size                      : 2.37 GiB
Duration                       : 1h 42mn
Overall bit rate mode          : Variable
Overall bit rate               : 3 301 Kbps
Video
ID                             : 224 (0xE0)
Format                         : MPEG Video
Format version                 : Version 2
Format profile                 : Main@Main
Format settings, BVOP          : Yes
Format settings, Matrix        : Custom
Format settings, GOP           : M=3, N=15
Format settings, picture struc : Frame
Duration                       : 1h 42mn
Bit rate mode                  : Variable
Bit rate                       : 2 979 Kbps
Maximum bit rate               : 9 500 Kbps
Width                          : 720 pixels
Height                         : 576 pixels
Display aspect ratio           : 4:3
Frame rate                     : 25.000 fps
Standard                       : PAL
Color space                    : YUV
Chroma subsampling             : 4:2:0
Bit depth                      : 8 bits
Scan type                      : Interlaced
Scan order                     : Top Field First
Compression mode               : Lossy
Bits/(Pixel*Frame)             : 0.287
Time code of first frame       : 00:00:00:00
Time code source               : Group of pictures header
GOP, Open/Closed               : Open
Stream size                    : 2.14 GiB (90%)
GOP, Open/Closed of first fram : Closed
Audio
ID                             : 192 (0xC0)
Format                         : MPEG Audio
Format version                 : Version 1
Format profile                 : Layer 2
Duration                       : 1h 42mn
Bit rate mode                  : Constant
Bit rate                       : 256 Kbps
Channel(s)                     : 2 channels
Sampling rate                  : 48.0 KHz
Compression mode               : Lossy
Stream size                    : 188 MiB (8%)


Код:
General
Complete name                  : D:ТеатрИзвещение Марии (2007)Извещение Марии (2007)Извещение Марии_02_(2007).mpg
Format                         : MPEG-PS
File size                      : 1.34 GiB
Duration                       : 57mn 59s
Overall bit rate mode          : Variable
Overall bit rate               : 3 301 Kbps
Video
ID                             : 224 (0xE0)
Format                         : MPEG Video
Format version                 : Version 2
Format profile                 : Main@Main
Format settings, BVOP          : Yes
Format settings, Matrix        : Custom
Format settings, GOP           : M=3, N=15
Format settings, picture struc : Frame
Duration                       : 57mn 59s
Bit rate mode                  : Variable
Bit rate                       : 2 979 Kbps
Maximum bit rate               : 9 500 Kbps
Width                          : 720 pixels
Height                         : 576 pixels
Display aspect ratio           : 4:3
Frame rate                     : 25.000 fps
Standard                       : PAL
Color space                    : YUV
Chroma subsampling             : 4:2:0
Bit depth                      : 8 bits
Scan type                      : Interlaced
Scan order                     : Top Field First
Compression mode               : Lossy
Bits/(Pixel*Frame)             : 0.287
Time code of first frame       : 00:00:00:00
Time code source               : Group of pictures header
GOP, Open/Closed               : Open
Stream size                    : 1.21 GiB (90%)
GOP, Open/Closed of first fram : Closed
Audio
ID                             : 192 (0xC0)
Format                         : MPEG Audio
Format version                 : Version 1
Format profile                 : Layer 2
Duration                       : 57mn 59s
Bit rate mode                  : Constant
Bit rate                       : 256 Kbps
Channel(s)                     : 2 channels
Sampling rate                  : 48.0 KHz
Compression mode               : Lossy
Delay relative to video        : 8ms
Stream size                    : 106 MiB (8%)




   Похожие торренты   Торрент   Размер 
В этой теме нет новых непрочитанных сообщений. Спектакль - Чудаки (2007) DVB от AND03AND

23 | 23

3.4 ГБ

В этой теме нет новых непрочитанных сообщений. Спектакль - Валентинов день (2007) DVB от AND03AND

6 | 11

3.45 ГБ

В этой теме нет новых непрочитанных сообщений. Спектакль - Перед заходом солнца (2007) DVB от AND03AND

59 | 11

2.97 ГБ

В этой теме нет новых непрочитанных сообщений. Спектакль - Срочно требуется... Самоубийца (2007) DVB-AVC от AND03AND

23 | 6

2.42 ГБ

В этой теме нет новых непрочитанных сообщений. Спектакль - Тартюф (2008) DVB-AVC от AND03AND

19 | 10

1.53 ГБ

В этой теме нет новых непрочитанных сообщений. Спектакль - Всё в саду (1992) DVB от AND03AND

56 | 14

2.98 ГБ

В этой теме нет новых непрочитанных сообщений. Спектакль - Чайка (1999) DVB от AND03AND

19 | 34

3.4 ГБ




Вы не можете начинать темы
Вы не можете отвечать на сообщения
Вы не можете редактировать свои сообщения
Вы не можете удалять свои сообщения
Вы не можете добавлять вложения

Перейти:  
Для Мосгорсуда, Роскомнадзора и рекламодателей: mosgorsud-torrent[собачка]yandex.ru
 Вход
ppkBB3cker v.2 © 2008-2014 @ PPK
[ Time : 0.035s | 15 Queries | GZIP : Off ]

Торрент трекер RUTOR.IN, Не можете зайти на rutor.org? Какой новый адрес рутор? Какое зеркало рутор? Не работает rutor.org и зеркала? Тогда наш торрент специально для вас. Rutor.in неофициальное зеркало rutor. В случае если у Вас заблокирован rutor или вдруг Вы не можете на него зайти, то Вы без труда сможете скачать бесплатно и без рекламы последние новинки кино, игр, сериалов и прочего у нас, на Rutor.in. Не нужно использовать прокси, чтобы зайти на рутор, достаточно воспользоваться нашим ресурсом. Все новые фильмы, игры, сериалы, книги и музыка за 2013 и 2014 годы через торрент бесплатно. Скачивайте фильмы в хорошем качестве, игры для пк, xbox, playstation без регистрации. У нас вы найдете новые Зарубежные сериалы и Русские сериалы 2013, 2014, 2015 годов. Оставайтесь с нами, качайте любимые фильмы, игры, сериалы, книги и музыку.