img image001 image001 image001 image001 image001 image001 image001 image001 image001 image001 image001 image001 image001 image001 image001

Planets Sun Sun Sun
Статистика раздачи
Автор: Nickolas3434 | Размер: 3.4 ГБ | Добавлен: 31 дек 2014
Раздают: 15    Качают: 22
Скачать торрент
Скачать торрент
Описание торрента

СообщениеДобавлено: 31 дек 2014 

Информация о фильме
Название: Чудаки
Год выхода: 2007
Жанр: Мелодрама
Режиссер: Валентина Еренькова
В ролях:
Константин Мастаков — заслуженный артист Беларуси Сергей Чекерес
Елена — Анастасия Шпаковская
Ольга — заслуженная артистка Республики Беларусь Анна Маланкина
Вукол Потехин — заслуженный артист Беларуси Иван Мацкевич
Николай Потехин — заслуженный артист Беларуси Андрей Душечкин
Медведева — народная артистка Беларуси Белла Масумян
Зина — Елена Стеценко
Вася Турицын — Валентин Середа
Самоквасов — Андрей Захаревич
Саша — Александра Богданова
О фильме:
Малоизвестная пьеса Максима Горького «Чудаки» – типичная мелодрама, замешанная на своеобразном юморе начала прошлого века. Этакий каприз великого писателя, который вывел в пьесе образ «инженера человеческих душ», своего коллегу по цеху, не мощным и цельным человеком, каким был сам, а инфантильным, мягким, слабым, любителем женщин и красивой литературы. Любовный треугольник – писатель, жена писателя, любовница писателя – забавно рассыпается, когда герой увлекается еще одной женщиной, неопытной и юной. Художнику слова, кроме жены и любовницы, нужна Муза. Мудрая жена, зная поэтическую натуру блудного супруга, не спешит разрушать семью. Но не так-то просто отвоевать собственного мужа у его увлечений.
Доп. информация:
Художник-постановщик – Алла Сорокина
Художник по костюмам – Иван Айплатов
Композитор – Алексей Ереньков
Хореография – Наталья Фурман
Премьера - 25 апреля 2003 года
Благодарность:
Исходник для данной раздачи, записан с цифрового наземного канала, т.е. DVB-Т, любезно предоставлен PavelDAS
За что ему большое спасибо!
Запись потока *.ts с наземного цифрового телеканала "Беларусь 3", ремукс в *.mpg программой VideoReDo.

Страна: Республика Беларусь
Студия: Национальный академический драматический театр им. Максима Горького, Минск
Продолжительность: 2-а действия 01:14:10 + 01:10:49
Перевод: Перевод: Не требуется
Язык: Русский
Файл
Кодек: MPEG-PS
Качество: DVB
Видео 1: MPEG2 Video 720x576 (4:3) 25.00fps, 3 030Кбит/сек
Видео 2: MPEG2 Video 720x576 (4:3) 25.00fps, 3 030Кбит/сек
Звук: MPEG Audio 48000Hz stereo 256kbps, 2 канала
Семпл
Код:
General
Complete name               : D:ТеатрЧудаки (2007)Чудаки (2007)Чудаки_01_(2007).mpg
Format                      : MPEG-PS
File size                   : 1.74 GiB
Duration                    : 1h 14mn
Overall bit rate mode       : Variable
Overall bit rate            : 3 353 Kbps
Video
ID                          : 224 (0xE0)
Format                      : MPEG Video
Format version              : Version 2
Format profile              : Main@Main
Format settings, BVOP       : Yes
Format settings, Matrix     : Custom
Format settings, GOP        : M=3, N=15
Format settings, picture st : Frame
Duration                    : 1h 14mn
Bit rate mode               : Variable
Bit rate                    : 3 030 Kbps
Maximum bit rate            : 9 500 Kbps
Width                       : 720 pixels
Height                      : 576 pixels
Display aspect ratio        : 4:3
Frame rate                  : 25.000 fps
Standard                    : PAL
Color space                 : YUV
Chroma subsampling          : 4:2:0
Bit depth                   : 8 bits
Scan type                   : Interlaced
Scan order                  : Top Field First
Compression mode            : Lossy
Bits/(Pixel*Frame)          : 0.292
Time code of first frame    : 00:00:00:00
Time code source            : Group of pictures header
GOP, Open/Closed            : Open
Stream size                 : 1.57 GiB (90%)
GOP, Open/Closed of first f : Closed
Audio
ID                          : 192 (0xC0)
Format                      : MPEG Audio
Format version              : Version 1
Format profile              : Layer 2
Duration                    : 1h 14mn
Bit rate mode               : Constant
Bit rate                    : 256 Kbps
Channel(s)                  : 2 channels
Sampling rate               : 48.0 KHz
Compression mode            : Lossy
Stream size                 : 136 MiB (8%)


Код:
General
Complete name               : D:ТеатрЧудаки (2007)Чудаки (2007)Чудаки_02_(2007).mpg
Format                      : MPEG-PS
File size                   : 1.66 GiB
Duration                    : 1h 10mn
Overall bit rate mode       : Variable
Overall bit rate            : 3 353 Kbps
Video
ID                          : 224 (0xE0)
Format                      : MPEG Video
Format version              : Version 2
Format profile              : Main@Main
Format settings, BVOP       : Yes
Format settings, Matrix     : Custom
Format settings, GOP        : M=3, N=15
Format settings, picture st : Frame
Duration                    : 1h 10mn
Bit rate mode               : Variable
Bit rate                    : 3 030 Kbps
Maximum bit rate            : 9 500 Kbps
Width                       : 720 pixels
Height                      : 576 pixels
Display aspect ratio        : 4:3
Frame rate                  : 25.000 fps
Standard                    : PAL
Color space                 : YUV
Chroma subsampling          : 4:2:0
Bit depth                   : 8 bits
Scan type                   : Interlaced
Scan order                  : Top Field First
Compression mode            : Lossy
Bits/(Pixel*Frame)          : 0.292
Time code of first frame    : 00:00:00:00
Time code source            : Group of pictures header
GOP, Open/Closed            : Open
Stream size                 : 1.50 GiB (90%)
GOP, Open/Closed of first f : Closed
Audio
ID                          : 192 (0xC0)
Format                      : MPEG Audio
Format version              : Version 1
Format profile              : Layer 2
Duration                    : 1h 10mn
Bit rate mode               : Constant
Bit rate                    : 256 Kbps
Channel(s)                  : 2 channels
Sampling rate               : 48.0 KHz
Compression mode            : Lossy
Delay relative to video     : 16ms
Stream size                 : 130 MiB (8%)




   Похожие торренты   Торрент   Размер 
В этой теме нет новых непрочитанных сообщений. Спектакль - Валентинов день (2007) DVB от AND03AND

4 | 9

3.45 ГБ

В этой теме нет новых непрочитанных сообщений. Спектакль - Извещение Марии (2007) DVB от AND03AND

23 | 10

3.71 ГБ

В этой теме нет новых непрочитанных сообщений. Спектакль - Срочно требуется... Самоубийца (2007) DVB-AVC от AND03AND

21 | 5

2.42 ГБ

В этой теме нет новых непрочитанных сообщений. Спектакль - Перед заходом солнца (2007) DVB от AND03AND

59 | 11

2.97 ГБ

В этой теме нет новых непрочитанных сообщений. Спектакль - Чайка (1999) DVB от AND03AND

13 | 33

3.4 ГБ

В этой теме нет новых непрочитанных сообщений. Спектакль - Тартюф (2008) DVB-AVC от AND03AND

19 | 10

1.53 ГБ

В этой теме нет новых непрочитанных сообщений. Спектакль - Всё в саду (1992) DVB от AND03AND

45 | 12

2.98 ГБ




Вы не можете начинать темы
Вы не можете отвечать на сообщения
Вы не можете редактировать свои сообщения
Вы не можете удалять свои сообщения
Вы не можете добавлять вложения

Перейти:  
Для Мосгорсуда, Роскомнадзора и рекламодателей: mosgorsud-torrent[собачка]yandex.ru
 Вход
ppkBB3cker v.2 © 2008-2014 @ PPK
[ Time : 0.091s | 15 Queries | GZIP : Off ]

Торрент трекер RUTOR.IN, Не можете зайти на rutor.org? Какой новый адрес рутор? Какое зеркало рутор? Не работает rutor.org и зеркала? Тогда наш торрент специально для вас. Rutor.in неофициальное зеркало rutor. В случае если у Вас заблокирован rutor или вдруг Вы не можете на него зайти, то Вы без труда сможете скачать бесплатно и без рекламы последние новинки кино, игр, сериалов и прочего у нас, на Rutor.in. Не нужно использовать прокси, чтобы зайти на рутор, достаточно воспользоваться нашим ресурсом. Все новые фильмы, игры, сериалы, книги и музыка за 2013 и 2014 годы через торрент бесплатно. Скачивайте фильмы в хорошем качестве, игры для пк, xbox, playstation без регистрации. У нас вы найдете новые Зарубежные сериалы и Русские сериалы 2013, 2014, 2015 годов. Оставайтесь с нами, качайте любимые фильмы, игры, сериалы, книги и музыку.