img image001 image001 image001 image001 image001 image001 image001 image001 image001 image001 image001 image001 image001 image001 image001

Planets Sun Sun Sun
Статистика раздачи
Автор: Nickolas3434 | Размер: 2.11 ГБ | Добавлен: 31 дек 2014
Раздают: 45    Качают: 8
Скачать торрент
Скачать торрент
Описание торрента

СообщениеДобавлено: 31 дек 2014 

Информация о фильме
Название: Спектакль - Имел бы я златые горы...
Год выхода: 2008
Жанр: Лирическая комедия
Режиссер: Народный артист Республики Северная Осетия-Алания Модест Абрамов
В ролях:
Корова Зорька - Анна Лаухина
Лошадь Сестричка - Раиса Сидорчик
Свинья - Наталья Онищенко
Пёс Крепыш - Сергей Шарангович
Петух - Юрий Баранов
Хозяйка - Елена Христич
Даша - Юлия Сурмейко
Алексей - Денис Мойсейчик
Хозяин - Александр Шаров
Сосед - заслуженный артист Республики Беларусь Сергей Журавель
О фильме:
Спектакль по пьесе Марии Ладо «Очень простая история».
Очень простая история, в которой петух говорит о политике и рекламе, лошадь и собака спорят о том, кто должен пожертвовать жизнью ради ещё не родившегося ребёнка, свинья становится ангелом, а люди, как всегда, ссорятся, мирятся, любят и рожают детей…
Большая часть персонажей — животные, которые рассуждают о жизни, смерти, о будущем и настоящем, о том, что интересует всех на этой планете. Они с недоумением смотрят на своих хозяев, ведь животным неведомы людские пороки: зависть, мстительность, злоба, предательство. А человеческие проблемы на их взгляд просто смешны. Смех сквозь слёзы… И всё же, слёзы эти чисты, а смех светел.
Доп. информация:
Художник-постановщик: А. Костюченко
Музыкальное оформление: М. Абрамов
Премьера: 2006 г.

Благодарность:
Исходник для данной раздачи, записан с цифрового наземного канала, т.е. DVB-Т, любезно предоставлен PavelDAS
За что ему большое спасибо!
Помощь с описанием: Bartimeyse
Запись потока *.ts с наземного цифрового телеканала "Беларусь 3", ремукс в *.mpg программой VideoReDo.

Страна: Республика Беларусь
Студия: Белорусский государственный молодежный театр, Минск
Продолжительность: 2-а действия 00:46:05 + 00:43:55
Перевод: Не требуется
Файл
Кодек: MPEG-PS
Качество: DVB
Видео 1: MPEG2 Video 720x576 (4:3) 25.00fps, 3 032 Кбит/сек
Видео 2: MPEG2 Video 720x576 (4:3) 25.00fps, 3 033 Кбит/сек
Аудио: MPEG Audio 48000Hz stereo 256kbps, 2 канала
Семпл: http://rusfolder.com/42655196
Код:
General
Complete name               : D:ТеатрИмел бы я златые горы... (2008)Имел бы я златые горы... (2008)Имел бы я златые горы..._01_(2008).mpg
Format                      : MPEG-PS
File size                   : 1.08 GiB
Duration                    : 46mn 4s
Overall bit rate mode       : Variable
Overall bit rate            : 3 355 Kbps
Video
ID                          : 224 (0xE0)
Format                      : MPEG Video
Format version              : Version 2
Format profile              : Main@Main
Format settings, BVOP       : Yes
Format settings, Matrix     : Custom
Format settings, GOP        : M=3, N=15
Format settings, picture st : Frame
Duration                    : 46mn 4s
Bit rate mode               : Variable
Bit rate                    : 3 032 Kbps
Maximum bit rate            : 9 500 Kbps
Width                       : 720 pixels
Height                      : 576 pixels
Display aspect ratio        : 4:3
Frame rate                  : 25.000 fps
Standard                    : PAL
Color space                 : YUV
Chroma subsampling          : 4:2:0
Bit depth                   : 8 bits
Scan type                   : Interlaced
Scan order                  : Top Field First
Compression mode            : Lossy
Bits/(Pixel*Frame)          : 0.292
Time code of first frame    : 00:00:00:00
Time code source            : Group of pictures header
GOP, Open/Closed            : Open
Stream size                 : 999 MiB (90%)
GOP, Open/Closed of first f : Closed
Audio
ID                          : 192 (0xC0)
Format                      : MPEG Audio
Format version              : Version 1
Format profile              : Layer 2
Duration                    : 46mn 4s
Bit rate mode               : Constant
Bit rate                    : 256 Kbps
Channel(s)                  : 2 channels
Sampling rate               : 48.0 KHz
Compression mode            : Lossy
Stream size                 : 84.4 MiB (8%)


Код:
General
Complete name               : D:ТеатрИмел бы я златые горы... (2008)Имел бы я златые горы... (2008)Имел бы я златые горы..._02_(2008).mpg
Format                      : MPEG-PS
File size                   : 1.03 GiB
Duration                    : 43mn 55s
Overall bit rate mode       : Variable
Overall bit rate            : 3 356 Kbps
Video
ID                          : 224 (0xE0)
Format                      : MPEG Video
Format version              : Version 2
Format profile              : Main@Main
Format settings, BVOP       : Yes
Format settings, Matrix     : Custom
Format settings, GOP        : M=3, N=15
Format settings, picture st : Frame
Duration                    : 43mn 55s
Bit rate mode               : Variable
Bit rate                    : 3 033 Kbps
Maximum bit rate            : 9 500 Kbps
Width                       : 720 pixels
Height                      : 576 pixels
Display aspect ratio        : 4:3
Frame rate                  : 25.000 fps
Standard                    : PAL
Color space                 : YUV
Chroma subsampling          : 4:2:0
Bit depth                   : 8 bits
Scan type                   : Interlaced
Scan order                  : Top Field First
Compression mode            : Lossy
Bits/(Pixel*Frame)          : 0.293
Time code of first frame    : 00:00:00:00
Time code source            : Group of pictures header
GOP, Open/Closed            : Open
Stream size                 : 953 MiB (90%)
GOP, Open/Closed of first f : Closed
Audio
ID                          : 192 (0xC0)
Format                      : MPEG Audio
Format version              : Version 1
Format profile              : Layer 2
Duration                    : 43mn 55s
Bit rate mode               : Constant
Bit rate                    : 256 Kbps
Channel(s)                  : 2 channels
Sampling rate               : 48.0 KHz
Compression mode            : Lossy
Stream size                 : 80.4 MiB (8%)




   Похожие торренты   Торрент   Размер 
В этой теме нет новых непрочитанных сообщений. Спектакль - Тартюф (2008) DVB-AVC от AND03AND

19 | 10

1.53 ГБ

В этой теме нет новых непрочитанных сообщений. Спектакль - Банкрот / Свои люди – сочтемся (2008) DVB-AVC от AND03AND

215 | 15

1.87 ГБ

В этой теме нет новых непрочитанных сообщений. Спектакль - Чайка (1999) DVB от AND03AND

19 | 34

3.4 ГБ

В этой теме нет новых непрочитанных сообщений. Спектакль - Чудаки (2007) DVB от AND03AND

23 | 23

3.4 ГБ

В этой теме нет новых непрочитанных сообщений. Спектакль - Всё в саду (1992) DVB от AND03AND

56 | 14

2.98 ГБ

В этой теме нет новых непрочитанных сообщений. Спектакль - У Синей бухты (1976) DVB от AND03AND

11 | 5

932.62 МБ

В этой теме нет новых непрочитанных сообщений. Спектакль - Наедине со всеми (1993) DVB-AVC от AND03AND

20 | 8

1.62 ГБ




Вы не можете начинать темы
Вы не можете отвечать на сообщения
Вы не можете редактировать свои сообщения
Вы не можете удалять свои сообщения
Вы не можете добавлять вложения

Перейти:  
Для Мосгорсуда, Роскомнадзора и рекламодателей: mosgorsud-torrent[собачка]yandex.ru
 Вход
ppkBB3cker v.2 © 2008-2014 @ PPK
[ Time : 0.064s | 14 Queries | GZIP : Off ]
CGP output time : 0.015s | 5 Queries | GZIP : Off

Торрент трекер RUTOR.IN, Не можете зайти на rutor.org? Какой новый адрес рутор? Какое зеркало рутор? Не работает rutor.org и зеркала? Тогда наш торрент специально для вас. Rutor.in неофициальное зеркало rutor. В случае если у Вас заблокирован rutor или вдруг Вы не можете на него зайти, то Вы без труда сможете скачать бесплатно и без рекламы последние новинки кино, игр, сериалов и прочего у нас, на Rutor.in. Не нужно использовать прокси, чтобы зайти на рутор, достаточно воспользоваться нашим ресурсом. Все новые фильмы, игры, сериалы, книги и музыка за 2013 и 2014 годы через торрент бесплатно. Скачивайте фильмы в хорошем качестве, игры для пк, xbox, playstation без регистрации. У нас вы найдете новые Зарубежные сериалы и Русские сериалы 2013, 2014, 2015 годов. Оставайтесь с нами, качайте любимые фильмы, игры, сериалы, книги и музыку.