img image001 image001 image001 image001 image001 image001 image001 image001 image001 image001 image001 image001 image001 image001 image001

Planets Sun Sun Sun
Статистика раздачи
Автор: Nickolas3434 | Размер: 7.95 ГБ | Добавлен: 02 янв 2015
Раздают: 312    Качают: 28
Скачать торрент
Скачать торрент
Описание торрента

СообщениеДобавлено: 02 янв 2015 

Топ Гир: Идеальное путешествие 2 / Top Gear: The Perfect Road Trip 2

Русское название: Топ Гир: Идеальное путешествие 2
Оригинальное название: Top Gear: The Perfect Road Trip 2
Год выпуска: 2014
Жанр: документальный, комедия
Выпущено: Великобритания
Режиссер: Фил Чурчуорд
В ролях: Джереми Кларксон , Ричард Хаммонд
Перевод: Профессиональный многоголосый, Любительский многоголосый

Сюжет фильма:
В который раз Кларксон и Хаммонд ищут радости и совершенства там, где есть быстрые, красивые и захватывающие дух автомобили, на славных дорогах среди великолепных пейзажей, залитых средиземноморским солнцем. В рамках своего нелёгкого проекта дуэт будет также осуществлять некоторые нелепые задачи и совершать невероятные трюки. Последнее задание ведущих будет проходить на острове Капри.

Качество: BDRip 1080p (исходник Blu-ray)
Формат: AVC (библиотека кодирования x.264)
Контейнер (Расширение): MKV
Видео: 1920x1080 (16:9), 10319 Кбит/сек, 25 кадр/сек, 0,199 Бит/[Пиксели*Кадры]
Аудио №1: русский / AC3 / 5.1 / 48 kHz / 640 kbps / 16 bit |Профессиональный многоголосый, AlexFilm|
Аудио №2: русский / AC3 / 2.0 / 48 kHz / 256 kbps / 16 bit |Профессиональный многоголосый, Gears Media|
Аудио №3: русский / AC3 / 2.0 / 48 kHz / 192 kbps / 16 bit |Любительский двухголосый, Jetvis Studio & RG.paravozik|
Аудио №4: английский / AC3 / 5.1 / 48 kHz / 640 kbps / 16 bit
Субтитры: английские (English)
Навигация по главам(Чаптеры): есть
Продолжительность: 01:34:30
Автор рипа: Сообщество:

Format : Matroska
Format version : Version 2
File size : 7.95 GiB
Duration : 1h 34mn
Overall bit rate : 12.0 Mbps
Movie name : Top Gir Ideal'noe puteshestvie 2.(2014).BDRip.1080p.[denis100]
Encoded date : UTC 2014-12-31 08:52:49
Writing application : mkvmerge v5.8.0 ('No Sleep / Pillow') built on Sep 2 2012 15:37:04
Writing library : libebml v1.2.3 + libmatroska v1.3.0
Attachment : Yes
Video
ID : 1
Format : AVC
Format/Info : Advanced Video Codec
Format profile : High@L4.1
Format settings, CABAC : Yes
Format settings, ReFrames : 4 frames
Codec ID : V_MPEG4/ISO/AVC
Duration : 1h 34mn
Bit rate : 10.3 Mbps
Width : 1 920 pixels
Height : 1 080 pixels
Display aspect ratio : 16:9
Frame rate : 25.000 fps
Color space : YUV
Chroma subsampling : 4:2:0
Bit depth : 8 bits
Scan type : Progressive
Bits/(Pixel*Frame) : 0.199
Stream size : 6.65 GiB (84%)
Title : Top Gir Ideal'noe puteshestvie 2.(2014).BDRip.1080p.[denis100]
Writing library : x264 core 142 r2491 24e4fed
Encoding settings : cabac=1 / ref=4 / deblock=1:-3:-3 / analyse=0x3:0x133 / me=umh / subme=11 / psy=1 / psy_rd=1.00:0.00 / mixed_ref=1 / me_range=32 / chroma_me=1 / trellis=2 / 8x8dct=1 / cqm=0 / deadzone=21,11 / fast_pskip=0 / chroma_qp_offset=-2 / threads=6 / lookahead_threads=1 / sliced_threads=0 / nr=0 / decimate=1 / interlaced=0 / bluray_compat=0 / constrained_intra=0 / bframes=9 / b_pyramid=2 / b_adapt=2 / b_bias=0 / direct=3 / weightb=1 / open_gop=0 / weightp=2 / keyint=250 / keyint_min=24 / scenecut=40 / intra_refresh=0 / rc=2pass / mbtree=0 / bitrate=10319 / ratetol=1.0 / qcomp=0.60 / qpmin=0 / qpmax=69 / qpstep=4 / cplxblur=20.0 / qblur=0.5 / ip_ratio=1.40 / pb_ratio=1.30 / aq=1:1.00
Language : English
Default : Yes
Forced : No
Audio #1
ID : 2
Format : AC-3
Format/Info : Audio Coding 3
Mode extension : CM (complete main)
Codec ID : A_AC3
Duration : 1h 34mn
Bit rate mode : Constant
Bit rate : 640 Kbps
Channel(s) : 6 channels
Channel positions : Front: L C R, Side: L R, LFE
Sampling rate : 48.0 KHz
Bit depth : 16 bits
Compression mode : Lossy
Stream size : 433 MiB (5%)
Title : Профессиональный многоголосый, AlexFilm
Language : Russian
Default : Yes
Forced : No
Audio #2
ID : 3
Format : AC-3
Format/Info : Audio Coding 3
Mode extension : CM (complete main)
Codec ID : A_AC3
Duration : 1h 34mn
Bit rate mode : Constant
Bit rate : 256 Kbps
Channel(s) : 2 channels
Channel positions : Front: L R
Sampling rate : 48.0 KHz
Bit depth : 16 bits
Compression mode : Lossy
Stream size : 173 MiB (2%)
Title : Профессиональный многоголосый, Gears Media
Language : Russian
Default : No
Forced : No
Audio #3
ID : 4
Format : AC-3
Format/Info : Audio Coding 3
Mode extension : CM (complete main)
Codec ID : A_AC3
Duration : 1h 34mn
Bit rate mode : Constant
Bit rate : 192 Kbps
Channel(s) : 2 channels
Channel positions : Front: L R
Sampling rate : 48.0 KHz
Bit depth : 16 bits
Compression mode : Lossy
Stream size : 130 MiB (2%)
Title : Любительский двухголосый, Jetvis Studio & RG.paravozik
Language : Russian
Default : No
Forced : No
Audio #4
ID : 5
Format : AC-3
Format/Info : Audio Coding 3
Mode extension : CM (complete main)
Codec ID : A_AC3
Duration : 1h 34mn
Bit rate mode : Constant
Bit rate : 640 Kbps
Channel(s) : 6 channels
Channel positions : Front: L C R, Side: L R, LFE
Sampling rate : 48.0 KHz
Bit depth : 16 bits
Compression mode : Lossy
Stream size : 433 MiB (5%)
Title : English
Language : English
Default : No
Forced : No
Text
ID : 6
Format : UTF-8
Codec ID : S_TEXT/UTF8
Codec ID/Info : UTF-8 Plain Text
Title : English
Language : English
Default : No
Forced : No
Menu
00:00:00.000 : en:01. A New Start In Venice
00:03:23.320 : en:02. McLaren 650S Spider v Lamborghini Huracan
00:19:35.640 : en:03. Jaguar F Type R Coupe v BMW M4 Coupe
00:33:17.000 : en:04. McLaren P1
00:40:01.200 : en:05. Hammond's Ferrari Dust-up
00:52:06.000 : en:06. Mini Cooper S v Audi S1
01:01:35.640 : en:07. Alfa Romeo 4C v Corvette Stingray
01:15:21.800 : en:08. Mercedes-Benz A45 AMG v VW Golf R
01:22:40.600 : en:09. Alfa Romeo Giulia Spider & Alfa Romeo 2600 Spider
01:27:22.000 : en:10. The Race to Capri - Tornado Power Boats
01:31:56.280 : en:11. Capri Mk1 3000 GXL v Capri 2.8 Injection Special




   Похожие торренты   Торрент   Размер 
В этой теме нет новых непрочитанных сообщений. Топ Гир: Идеальное Путешествие 2 / Top Gear: The Perfect Road Trip 2 (2014) BDRip 1080p

135 | 32

7.1 ГБ

В этой теме нет новых непрочитанных сообщений. Топ Гир: Идеальное Путешествие 2 / Top Gear: The Perfect Road Trip 2 (2014) BDRip 720p | Gears Media

659 | 46

1.34 ГБ

В этой теме нет новых непрочитанных сообщений. Топ Гир: Идеальное Путешествие 2 / Top Gear: The Perfect Road Trip 2 (2014) BDRip 720p | Jetvis Studio & RG.paravozik

1845 | 149

2.7 ГБ

В этой теме нет новых непрочитанных сообщений. Топ Гир: Идеальное путешествие / Top Gear: The Perfect Road Trip (2013) BDRip 720p

196 | 16

3.2 ГБ

В этой теме нет новых непрочитанных сообщений. Идеальное убийство / A Perfect Murder (1998) BDRip 1080p

133 | 9

7.76 ГБ

В этой теме нет новых непрочитанных сообщений. Путешествие Гектора в поисках счастья / Hector and the Search for Happiness (2014) BDRip 1080p от NNNB | D, A

116 | 9

11.84 ГБ

В этой теме нет новых непрочитанных сообщений. Идеальное убежище / Perfect Hideout (2008) BDRip

3 | 3

1.46 ГБ




Вы не можете начинать темы
Вы не можете отвечать на сообщения
Вы не можете редактировать свои сообщения
Вы не можете удалять свои сообщения
Вы не можете добавлять вложения

Перейти:  
Для Мосгорсуда, Роскомнадзора и рекламодателей: mosgorsud-torrent[собачка]yandex.ru
 Вход
ppkBB3cker v.2 © 2008-2014 @ PPK
[ Time : 0.039s | 17 Queries | GZIP : Off ]

Торрент трекер RUTOR.IN, Не можете зайти на rutor.org? Какой новый адрес рутор? Какое зеркало рутор? Не работает rutor.org и зеркала? Тогда наш торрент специально для вас. Rutor.in неофициальное зеркало rutor. В случае если у Вас заблокирован rutor или вдруг Вы не можете на него зайти, то Вы без труда сможете скачать бесплатно и без рекламы последние новинки кино, игр, сериалов и прочего у нас, на Rutor.in. Не нужно использовать прокси, чтобы зайти на рутор, достаточно воспользоваться нашим ресурсом. Все новые фильмы, игры, сериалы, книги и музыка за 2013 и 2014 годы через торрент бесплатно. Скачивайте фильмы в хорошем качестве, игры для пк, xbox, playstation без регистрации. У нас вы найдете новые Зарубежные сериалы и Русские сериалы 2013, 2014, 2015 годов. Оставайтесь с нами, качайте любимые фильмы, игры, сериалы, книги и музыку.