img image001 image001 image001 image001 image001 image001 image001 image001 image001 image001 image001 image001 image001 image001 image001

Planets Sun Sun Sun
Статистика раздачи
Автор: Nickolas3434 | Размер: 3.4 ГБ | Добавлен: 03 янв 2015
Раздают: 12    Качают: 34
Скачать торрент
Скачать торрент
Описание торрента

СообщениеДобавлено: 03 янв 2015 

Информация о фильме
Название: Спектакль - Чайка
Год выхода: 1999
Жанр: Драма
Режиссер: Рид Талипов
В ролях:
Аркадина, актриса - нар. арт. Республики Беларусь Людмила Корхова
Треплев, ее сын - Сергей Поздняк
Сорин, ее брат - засл. арт. Республики Беларусь Николая Палло
Заречная, молодая девушка - Наталья Деберина
Шамраев, поручик в отставке - Виталий Бедношея
Полина Андреевна, его жена - Галина Широкшина
Маша, его дочка - Татьяна Змитюро
Тригорин, беллетрист - Олег Короткевич
Дорн, врач - засл. арт. Республики Беларусь Юрий Фейгин
Медведенко, учитель - Юрий Мартинович
Яков, работник - Артем Булавка
О фильме:
Спектакль по одноименной пьесе Антона Павловича Чехова.
На лесном озере человек "от нечего делать" убил чайку. Символизм этой истории позволил Чехову выразить психологически сложные "неразрывно-неслиянные" отношения героев, живущих возле красивого озера, страдающих, надеющихся, ищущих, но не способных найти себя и своё место в жизни.
Самая трудная в судьбе А. П. Чехова, но и самая известная и востребованная театрами мира пьеса. Её простота, уникальная театральность и сценическое долголетие привлекают режиссёров и актеров, которые каждой новой постановкой предлагают зрителям разгадать тайну пьесы, в которой драму людей автор представил в жанре комедии.

Благодарность:
Исходник для данной раздачи, записан с цифрового наземного канала, т.е. DVB-Т, любезно предоставлен PavelDAS
За что ему большое спасибо!
Помощь с описанием: Bartimeyse
Запись потока *.ts с наземного цифрового телеканала "Беларусь 3", ремукс в *.mpg программой VideoReDo.

Страна: Республика Беларусь
Студия: Гомельский областной драматический театр
Продолжительность: 2-а действия 01:13:42 + 01:10:58
Перевод: Не требуется
Файл
Кодек: MPEG-PS
Качество: DVB
Видео 1: MPEG2 Video 720x576 (4:3) 25.00fps, 3046 Kbps
Видео 2: MPEG2 Video 720x576 (4:3) 25.00fps, 3046 Kbps
Звук: MPEG Audio 48000Hz stereo 256kbps, 2 канала
Семпл
Код:
General
Complete name               : D:ТеатрЧайка (1999) с глюкомЧайка (1999)Чайка _01_1999.mpg
Format                      : MPEG-PS
File size                   : 1.73 GiB
Duration                    : 1h 13mn
Overall bit rate mode       : Variable
Overall bit rate            : 3 369 Kbps
Video
ID                          : 224 (0xE0)
Format                      : MPEG Video
Format version              : Version 2
Format profile              : Main@Main
Format settings, BVOP       : Yes
Format settings, Matrix     : Custom
Format settings, GOP        : M=3, N=15
Format settings, picture st : Frame
Duration                    : 1h 13mn
Bit rate mode               : Variable
Bit rate                    : 3 046 Kbps
Maximum bit rate            : 9 500 Kbps
Width                       : 720 pixels
Height                      : 576 pixels
Display aspect ratio        : 4:3
Frame rate                  : 25.000 fps
Standard                    : PAL
Color space                 : YUV
Chroma subsampling          : 4:2:0
Bit depth                   : 8 bits
Scan type                   : Interlaced
Scan order                  : Top Field First
Compression mode            : Lossy
Bits/(Pixel*Frame)          : 0.294
Time code of first frame    : 00:00:00:00
Time code source            : Group of pictures header
GOP, Open/Closed            : Open
Stream size                 : 1.57 GiB (90%)
GOP, Open/Closed of first f : Closed
Audio
ID                          : 192 (0xC0)
Format                      : MPEG Audio
Format version              : Version 1
Format profile              : Layer 2
Duration                    : 1h 13mn
Bit rate mode               : Constant
Bit rate                    : 256 Kbps
Channel(s)                  : 2 channels
Sampling rate               : 48.0 KHz
Compression mode            : Lossy
Stream size                 : 135 MiB (8%)


Код:
General
Complete name               : D:ТеатрЧайка (1999) с глюкомЧайка (1999)Чайка _02_1999.mpg
Format                      : MPEG-PS
File size                   : 1.67 GiB
Duration                    : 1h 10mn
Overall bit rate mode       : Variable
Overall bit rate            : 3 369 Kbps
Video
ID                          : 224 (0xE0)
Format                      : MPEG Video
Format version              : Version 2
Format profile              : Main@Main
Format settings, BVOP       : Yes
Format settings, Matrix     : Custom
Format settings, GOP        : M=3, N=15
Format settings, picture st : Frame
Duration                    : 1h 10mn
Bit rate mode               : Variable
Bit rate                    : 3 046 Kbps
Maximum bit rate            : 9 500 Kbps
Width                       : 720 pixels
Height                      : 576 pixels
Display aspect ratio        : 4:3
Frame rate                  : 25.000 fps
Standard                    : PAL
Color space                 : YUV
Chroma subsampling          : 4:2:0
Bit depth                   : 8 bits
Scan type                   : Interlaced
Scan order                  : Top Field First
Compression mode            : Lossy
Bits/(Pixel*Frame)          : 0.294
Time code of first frame    : 00:00:00:00
Time code source            : Group of pictures header
GOP, Open/Closed            : Open
Stream size                 : 1.51 GiB (90%)
GOP, Open/Closed of first f : Closed
Audio
ID                          : 192 (0xC0)
Format                      : MPEG Audio
Format version              : Version 1
Format profile              : Layer 2
Duration                    : 1h 10mn
Bit rate mode               : Constant
Bit rate                    : 256 Kbps
Channel(s)                  : 2 channels
Sampling rate               : 48.0 KHz
Compression mode            : Lossy
Delay relative to video     : 8ms
Stream size                 : 130 MiB (8%)




   Похожие торренты   Торрент   Размер 
В этой теме нет новых непрочитанных сообщений. Спектакль - Поцелуй меня, Генри! / Когда лошадь теряет сознание (1999) DVB-AVC от AND03AND

17 | 3

1.77 ГБ

В этой теме нет новых непрочитанных сообщений. Спектакль. Чайка (2001) CAMRip

1 | 4

1.83 ГБ

В этой теме нет новых непрочитанных сообщений. Спектакль - Тартюф (2008) DVB-AVC от AND03AND

17 | 9

1.53 ГБ

В этой теме нет новых непрочитанных сообщений. Спектакль - Всё в саду (1992) DVB от AND03AND

45 | 12

2.98 ГБ

В этой теме нет новых непрочитанных сообщений. Спектакль - Чудаки (2007) DVB от AND03AND

15 | 22

3.4 ГБ

В этой теме нет новых непрочитанных сообщений. Спектакль - Валентинов день (2007) DVB от AND03AND

4 | 9

3.45 ГБ

В этой теме нет новых непрочитанных сообщений. Спектакль - Наедине со всеми (1993) DVB-AVC от AND03AND

14 | 7

1.62 ГБ




Вы не можете начинать темы
Вы не можете отвечать на сообщения
Вы не можете редактировать свои сообщения
Вы не можете удалять свои сообщения
Вы не можете добавлять вложения

Перейти:  
Для Мосгорсуда, Роскомнадзора и рекламодателей: mosgorsud-torrent[собачка]yandex.ru
 Вход
ppkBB3cker v.2 © 2008-2014 @ PPK
[ Time : 0.050s | 17 Queries | GZIP : Off ]

Торрент трекер RUTOR.IN, Не можете зайти на rutor.org? Какой новый адрес рутор? Какое зеркало рутор? Не работает rutor.org и зеркала? Тогда наш торрент специально для вас. Rutor.in неофициальное зеркало rutor. В случае если у Вас заблокирован rutor или вдруг Вы не можете на него зайти, то Вы без труда сможете скачать бесплатно и без рекламы последние новинки кино, игр, сериалов и прочего у нас, на Rutor.in. Не нужно использовать прокси, чтобы зайти на рутор, достаточно воспользоваться нашим ресурсом. Все новые фильмы, игры, сериалы, книги и музыка за 2013 и 2014 годы через торрент бесплатно. Скачивайте фильмы в хорошем качестве, игры для пк, xbox, playstation без регистрации. У нас вы найдете новые Зарубежные сериалы и Русские сериалы 2013, 2014, 2015 годов. Оставайтесь с нами, качайте любимые фильмы, игры, сериалы, книги и музыку.
cron