img image001 image001 image001 image001 image001 image001 image001 image001 image001 image001 image001 image001 image001 image001 image001

Planets Sun Sun Sun
Статистика раздачи
Автор: Nickolas3434 | Размер: 457.41 МБ | Добавлен: 03 янв 2015
Раздают: 1    Качают: 4
Скачать торрент
Скачать торрент
Описание торрента

СообщениеДобавлено: 03 янв 2015 

Информация о фильме
Название: Метафора - Владимир Жбанов
Год выхода: 2006
Жанр: Документальный
Режиссер: Александр Анисимов
О фильме:
Работы скульптора Владимира Жбанова известны жителям Беларуси, России и дальнего зарубежья. В Минске, на Комаровском рынке, дети до блеска отполировали седло бронзовой лошади, Михайловский сквер уже невозможно представить без дамы на скамейке, девочки с зонтиком и других работ. Казалось бы, недавно Минск, Могилев и другие города обходились без скульптур Жбанова, но уже подрастает целое поколение людей, для которых они – неотъемлемая частичка огромного города.
В картине представлены и скульптуры, находящиеся в данный момент в работе, потому что основной задачей авторов было не только рассказать о Жбанове, как скульпторе и человеке с трудной и интересной судьбой, прошедшем Афганистан, но и раскрыть смысл и корни творчества конкретного художника.
«Искусство художника обнажено до предела, склоняйте ваши головы перед художниками, не в каждом из них Бог, но каждый верит в музу и, словно зачарованный, идет к своему Олимпу. Обнимите себя сильнее, если вы верите в искусство и в тех, кто его творит…».
Благодарность:
Исходник для данной раздачи, записан с цифрового наземного канала, т.е. DVB-Т, любезно предоставлен PavelDAS
За что ему большое спасибо!
Запись потока *.ts с наземного цифрового телеканала "Беларусь 3".

Страна: Республика Беларусь
Студия: Белорусский видеоцентр
Продолжительность: 00:25:03
Перевод: Не требуется
Файл
Кодек: MPEG-TS
Качество: DVB
Видео: MPEG4 Video (H264) 720x576, 2168kbps
Звук: MPEG Audio 48000Hz stereo 256kbps
Семпл
Код:
General
ID                          : 1 (0x1)
Complete name               : D:�01 Документальный фильмыЛичностиМетафора-Владимир Жбанов (2006)Метафора-Владимир Жбанов_2006.ts
Format                      : MPEG-TS
File size                   : 457 MiB
Duration                    : 25mn 2s
Overall bit rate mode       : Variable
Overall bit rate            : 2 553 Kbps
Video
ID                          : 801 (0x321)
Menu ID                     : 1 (0x1)
Format                      : AVC
Format/Info                 : Advanced Video Codec
Format profile              : Main@L3.0
Format settings, CABAC      : Yes
Format settings, ReFrames   : 4 frames
Format settings, GOP        : M=4, N=24
Codec ID                    : 27
Duration                    : 25mn 2s
Bit rate                    : 2 168 Kbps
Width                       : 720 pixels
Height                      : 576 pixels
Display aspect ratio        : 4:3
Frame rate                  : 25.000 fps
Standard                    : PAL
Color space                 : YUV
Chroma subsampling          : 4:2:0
Bit depth                   : 8 bits
Scan type                   : MBAFF
Scan order                  : Top Field First
Bits/(Pixel*Frame)          : 0.209
Stream size                 : 388 MiB (85%)
Color primaries             : BT.601 PAL
Transfer characteristics    : BT.470 System B, BT.470 System G
Matrix coefficients         : BT.601
Color range                 : Limited
Audio
ID                          : 802 (0x322)
Menu ID                     : 1 (0x1)
Format                      : MPEG Audio
Format version              : Version 1
Format profile              : Layer 2
Codec ID                    : 3
Duration                    : 25mn 2s
Bit rate mode               : Constant
Bit rate                    : 256 Kbps
Channel(s)                  : 2 channels
Sampling rate               : 48.0 KHz
Compression mode            : Lossy
Stream size                 : 45.9 MiB (10%)
Language                    : Russian
 




   Похожие торренты   Торрент   Размер 
В этой теме нет новых непрочитанных сообщений. Погружение. Владимир Гостюхин (2014) DVB от AND03AND

2 | 2

978.56 МБ

В этой теме нет новых непрочитанных сообщений. Вместе с ним. Владимир Корш-Саблин (1999) DVB от AND03AND

0 | 1

518.53 МБ

В этой теме нет новых непрочитанных сообщений. Владимир Высоцкий. Белорусский след (2011) DVB от AND03AND

44 | 2

459.17 МБ

В этой теме нет новых непрочитанных сообщений. Творческий вечер. Владимир Зельдин (2012) DVB от AND03AND

0 | 0

1.41 ГБ

В этой теме нет новых непрочитанных сообщений. Москва - Минск. Кинотранзит. Лариса Шепитько, Борис Плотников, Владимир Гостюхин [01-03 из 3] (2007) DVB от AND03AND

19 | 5

1.31 ГБ

В этой теме нет новых непрочитанных сообщений. Опера - Владимир Короткевич - Седая легенда (Вечера Большого театра в замке Радзивиллов) (2013) BD DVB от AND03AND

5 | 6

1.7 ГБ

В этой теме нет новых непрочитанных сообщений. Манин Ю.И. - Математика как метафора (2008) PDF

24 | 0

2.67 МБ




Вы не можете начинать темы
Вы не можете отвечать на сообщения
Вы не можете редактировать свои сообщения
Вы не можете удалять свои сообщения
Вы не можете добавлять вложения

Перейти:  
Для Мосгорсуда, Роскомнадзора и рекламодателей: mosgorsud-torrent[собачка]yandex.ru
 Вход
ppkBB3cker v.2 © 2008-2014 @ PPK
[ Time : 0.047s | 16 Queries | GZIP : Off ]

Торрент трекер RUTOR.IN, Не можете зайти на rutor.org? Какой новый адрес рутор? Какое зеркало рутор? Не работает rutor.org и зеркала? Тогда наш торрент специально для вас. Rutor.in неофициальное зеркало rutor. В случае если у Вас заблокирован rutor или вдруг Вы не можете на него зайти, то Вы без труда сможете скачать бесплатно и без рекламы последние новинки кино, игр, сериалов и прочего у нас, на Rutor.in. Не нужно использовать прокси, чтобы зайти на рутор, достаточно воспользоваться нашим ресурсом. Все новые фильмы, игры, сериалы, книги и музыка за 2013 и 2014 годы через торрент бесплатно. Скачивайте фильмы в хорошем качестве, игры для пк, xbox, playstation без регистрации. У нас вы найдете новые Зарубежные сериалы и Русские сериалы 2013, 2014, 2015 годов. Оставайтесь с нами, качайте любимые фильмы, игры, сериалы, книги и музыку.
cron