img image001 image001 image001 image001 image001 image001 image001 image001 image001 image001 image001 image001 image001 image001 image001

Planets Sun Sun Sun
Статистика раздачи
Автор: Nickolas3434 | Размер: 1.01 ГБ | Добавлен: 04 янв 2015
Раздают: 15    Качают: 3
Скачать торрент
Скачать торрент
Описание торрента

СообщениеДобавлено: 04 янв 2015 

Информация о фильме
Название: Арт-группа "Беларусы"
Год выхода: 2014
Жанр: концерт
О фильме:
Концерт из цикла "Новогодние вечера в Молодечно". Арт-группа "Беларусы" представляет новогоднюю программу с мировыми хитами, белорусскими песнями и собственными композициями.
Страна: Беларусь
Продолжительность: 00:58:29
Файл
Качество: DVB
Кодек: MPEG-TS
Видео: AVC (H264), 720x576@785x576 (4:3), анаморф, 2098 kbps, 25 fps
Звук: MP2, 2 сh, 48 kHz, 256 kbps

General
ID : 1010 (0x3F2)
Complete name : D:WorkVideoНавагоднія вечары ў МаладзечнаАрт-группа Беларусы.ts
Format : MPEG-TS
File size : 1.01 GiB
Duration : 58mn 29s
Overall bit rate mode : Variable
Overall bit rate : 2 480 Kbps
Video
ID : 161 (0xA1)
Menu ID : 160 (0xA0)
Format : AVC
Format/Info : Advanced Video Codec
Format profile : Main@L3.0
Format settings, CABAC : Yes
Format settings, ReFrames : 4 frames
Format settings, GOP : M=4, N=24
Codec ID : 27
Duration : 58mn 29s
Bit rate : 2 098 Kbps
Width : 720 pixels
Height : 576 pixels
Display aspect ratio : 4:3
Frame rate : 25.000 fps
Standard : PAL
Color space : YUV
Chroma subsampling : 4:2:0
Bit depth : 8 bits
Scan type : MBAFF
Scan order : Top Field First
Bits/(Pixel*Frame) : 0.202
Stream size : 878 MiB (85%)
Color primaries : BT.601 PAL
Transfer characteristics : BT.470 System B, BT.470 System G
Matrix coefficients : BT.601
Color range : Limited
Audio
ID : 164 (0xA4)
Menu ID : 160 (0xA0)
Format : MPEG Audio
Format version : Version 1
Format profile : Layer 2
Codec ID : 3
Duration : 58mn 29s
Bit rate mode : Constant
Bit rate : 256 Kbps
Channel(s) : 2 channels
Sampling rate : 48.0 KHz
Compression mode : Lossy
Delay relative to video : 112ms
Stream size : 107 MiB (10%)




   Похожие торренты   Торрент   Размер 
В этой теме нет новых непрочитанных сообщений. БГА «Песняры». Концерт из цикла «Новогодние вечера в Молодечно» (2014) DVB

138 | 7

1.04 ГБ

В этой теме нет новых непрочитанных сообщений. Зимний калейдоскоп. Концерт из цикла «Новогодние вечера в Молодечно» (2014) DVB

7 | 2

1.05 ГБ

В этой теме нет новых непрочитанных сообщений. Камерата / CAMERATA (Новогодние вечера в Молодечно) (2014) DVB от AND03AND

6 | 4

911.37 МБ

В этой теме нет новых непрочитанных сообщений. Музыкальные вечера в Мирском замке. Концерт «Живой рок» (2014) DVB

9 | 34

1.59 ГБ

В этой теме нет новых непрочитанных сообщений. Новогодние вечера с Максимом Галкиным и Николаем Басковым [01-02 из 02] (2012) IPTVRip от KinoZalSat

0 | 2

2.09 ГБ

В этой теме нет новых непрочитанных сообщений. Музыкальные вечера в Мирском замке. Концерт дуэта «Потап и Настя» (2014) DVB

91 | 21

1.28 ГБ

В этой теме нет новых непрочитанных сообщений. Молодечно приглашает - Концерт групп Палац и Стары Ольса (2015) DVB от AND03AND

22 | 1

2.06 ГБ




Вы не можете начинать темы
Вы не можете отвечать на сообщения
Вы не можете редактировать свои сообщения
Вы не можете удалять свои сообщения
Вы не можете добавлять вложения

Перейти:  
Для Мосгорсуда, Роскомнадзора и рекламодателей: mosgorsud-torrent[собачка]yandex.ru
 Вход
ppkBB3cker v.2 © 2008-2014 @ PPK
[ Time : 0.601s | 18 Queries | GZIP : On ]

Торрент трекер RUTOR.IN, Не можете зайти на rutor.org? Какой новый адрес рутор? Какое зеркало рутор? Не работает rutor.org и зеркала? Тогда наш торрент специально для вас. Rutor.in неофициальное зеркало rutor. В случае если у Вас заблокирован rutor или вдруг Вы не можете на него зайти, то Вы без труда сможете скачать бесплатно и без рекламы последние новинки кино, игр, сериалов и прочего у нас, на Rutor.in. Не нужно использовать прокси, чтобы зайти на рутор, достаточно воспользоваться нашим ресурсом. Все новые фильмы, игры, сериалы, книги и музыка за 2013 и 2014 годы через торрент бесплатно. Скачивайте фильмы в хорошем качестве, игры для пк, xbox, playstation без регистрации. У нас вы найдете новые Зарубежные сериалы и Русские сериалы 2013, 2014, 2015 годов. Оставайтесь с нами, качайте любимые фильмы, игры, сериалы, книги и музыку.