img image001 image001 image001 image001 image001 image001 image001 image001 image001 image001 image001 image001 image001 image001 image001 image001

Planets Sun Sun Sun
Статистика раздачи
Автор: Nickolas3434 | Размер: 5.49 ГБ | Добавлен: 03 янв 2015
Раздают: 32    Качают: 32
Скачать торрент
Скачать торрент
Описание торрента

СообщениеДобавлено: 03 янв 2015 

Оригинальное название: Юбилейный концерт Евгения Крылатова
Жанр: Концерт
Год выхода: 2015
Выпущено: Россия
Описание: Народный артист России, лауреат Государственной премии СССР, композитор Евгений Крылатов недавно отметил 80-летний юбилей. В праздничном концерте, приуроченном к дню его рождения, прозвучат более 30 лучших сочинений композитора, среди которых песни "Крылатые качели", "Лесной олень", "Три белых коня", "Прекрасное далеко", "Что может быть лучше России" и многие другие.
Релиз от:
Качество: HDTV 1080i
Видео: 1920х1080 (16:9), 25 fps, AVC MPEG-4 (x264), High@L4.0 10600 kbps avg, 0.205 bit/pixel
Аудио: 48 kHz, MP2, 2 ch, 224 kbps avg
Продолжительность: 01:08:57
Перевод: Не требуется
General
ID : 1 (0x1)
Complete name : C:Yubileyniy.Koncert.Evreniya.Krylatova.(03.01.2015).HDTV.1080i.ts
Format : MPEG-TS
File size : 5.49 GiB
Duration : 1h 8mn
Overall bit rate : 11.4 Mbps
Video
ID : 1901 (0x76D)
Menu ID : 1 (0x1)
Format : AVC
Format/Info : Advanced Video Codec
Format profile : High@L4.0
Format settings, CABAC : Yes
Format settings, ReFrames : 3 frames
Codec ID : 27
Duration : 1h 8mn
Bit rate : 10.6 Mbps
Width : 1 920 pixels
Height : 1 080 pixels
Display aspect ratio : 16:9
Frame rate : 25.000 fps
Standard : Component
Color space : YUV
Chroma subsampling : 4:2:0
Bit depth : 8 bits
Scan type : Interlaced
Scan order : Top Field First
Bits/(Pixel*Frame) : 0.205
Stream size : 5.11 GiB (93%)
Color primaries : BT.709-5, BT.1361, IEC 61966-2-4, SMPTE RP177
Transfer characteristics : BT.709-5, BT.1361
Matrix coefficients : BT.709-5, BT.1361, IEC 61966-2-4 709, SMPTE RP177
Audio
ID : 2901 (0xB55)
Menu ID : 1 (0x1)
Format : MPEG Audio
Format version : Version 1
Format profile : Layer 2
Codec ID : 3
Duration : 1h 8mn
Bit rate mode : Constant
Bit rate : 224 Kbps
Channel(s) : 2 channels
Sampling rate : 48.0 KHz
Compression mode : Lossy
Stream size : 111 MiB (2%)
Language : Russian




   Похожие торренты   Торрент   Размер 
В этой теме нет новых непрочитанных сообщений. Юбилейный концерт Евгения Крылатова [03.01] (2015) SATRip

25 | 8

986.87 МБ

В этой теме нет новых непрочитанных сообщений. Юбилейный концерт Евгения Крылатова [03.01] (2015) HDTVRip

40 | 13

1.37 ГБ

В этой теме нет новых непрочитанных сообщений. Юбилейный концерт Евгения Петросяна. 70 лет уже не в обед [01-02] (2015) SATRip от Files-x

104 | 13

2.9 ГБ

В этой теме нет новых непрочитанных сообщений. Евровидению 60 лет (Юбилейный концерт) / Eurovision 60s winners (2015) HDTV (1080i)

81 | 8

3.37 ГБ

В этой теме нет новых непрочитанных сообщений. Юбилейный концерт Игоря Крутого [Эфир 03.01] (2015) HDTV 1080i от MediaClub

131 | 26

9.63 ГБ

В этой теме нет новых непрочитанных сообщений. Руки вверх! 20 лет. Юбилейный концерт (2017) HDTV 1080i от HitWay

53 | 5

2.96 ГБ

В этой теме нет новых непрочитанных сообщений. Михаил Жванецкий. Юбилейный концерт (2014) HDTV 1080i от MediaClub

245 | 161

6.01 ГБ




Вы не можете начинать темы
Вы не можете отвечать на сообщения
Вы не можете редактировать свои сообщения
Вы не можете удалять свои сообщения
Вы не можете добавлять вложения

Перейти:  
 Вход
ppkBB3cker v.2 © 2008-2014 @ PPK
[ Time : 2.794s | 18 Queries | GZIP : Off ]

cron