img image001 image001 image001 image001 image001 image001 image001 image001 image001 image001 image001 image001 image001 image001 image001

Planets Sun Sun Sun
Статистика раздачи
Автор: Nickolas3434 | Размер: 3.18 ГБ | Добавлен: 07 янв 2015
Раздают: 195    Качают: 39
Скачать торрент
Скачать торрент
Описание торрента

СообщениеДобавлено: 07 янв 2015 

Название: Топ Гир: Спецвыпуск в Патагонии (1-2 части)
Оригинальное название: Top Gear: Patagonia Special
Год выпуска: 2014
Жанр: Авто-шоу
Выпущено: Великобритания, British Broadcasting Corporation (BBC)
Режиссер: Фил Чурчуорд
В ролях: Джереми Кларксон, Ричард Хаммонд, Джеймс Мэй, Стиг
О фильме: Это очередной рождественский спецвыпуск шоу Топ Гир. В этот раз Джереми Кларксон, Ричард Хаммонд и Джеймс Мэй на 3-ёх восьмицилиндровых спорткарах отправятся на изнурительное путешествие в 1600 миль через впечатляющие пейзажи Патагонии (Южная Америка). В пути у них много препятствий. В том числе неровные дороги, сломанные кости и коровы... Самой главной их задачей в первой части спецвыпуска будет добраться до самого южного города в Патагонии....
Продолжительность: 01:02:07 + 01:03:00
Перевод: Профессиональный многоголосый, AlexFilm
Качество: HDTVRip-AVC
Формат: AVC (библиотека кодирования x.264)
Контейнер (Расширение): MKV
Видео: 1024x578 (16:9), 3116 Кбит/сек, 25 кадр/сек, 0,211 Бит/[Пиксели*Кадры]
Аудио №1: русский / AC3 / 2.0 / 48 kHz / 192 kbps / |Профессиональный многоголосый, AlexFilm|
Аудио №2: английский / AC3 / 2.0 / 48 kHz / 192 kbps /
Продолжительность: 01:02:13
Format : Matroska
Format version : Version 2
File size : 1.55 GiB
Duration : 1h 2mn
Overall bit rate : 3 572 Kbps
Movie name : Top Gir: Specvypusk v Patagonii (1 chast').(2014).HDTVRip-AVC.[denis100]
Encoded date : UTC 2015-01-05 15:10:54
Writing application : mkvmerge v5.8.0 ('No Sleep / Pillow') built on Sep 2 2012 15:37:04
Writing library : libebml v1.2.3 + libmatroska v1.3.0
Video
ID : 1
Format : AVC
Format/Info : Advanced Video Codec
Format profile : High@L4.1
Format settings, CABAC : Yes
Format settings, ReFrames : 11 frames
Codec ID : V_MPEG4/ISO/AVC
Duration : 1h 2mn
Bit rate : 3 117 Kbps
Width : 1 024 pixels
Height : 578 pixels
Display aspect ratio : 16:9
Frame rate : 25.000 fps
Color space : YUV
Chroma subsampling : 4:2:0
Bit depth : 8 bits
Scan type : Progressive
Bits/(Pixel*Frame) : 0.211
Stream size : 1.35 GiB (87%)
Title : Top Gir: Specvypusk v Patagonii (1 chast').(2014).HDTVRip-AVC.[denis100]
Writing library : x264 core 142 r2491 24e4fed
Encoding settings : cabac=1 / ref=11 / deblock=1:-3:-3 / analyse=0x3:0x133 / me=umh / subme=11 / psy=1 / psy_rd=1.00:0.10 / mixed_ref=1 / me_range=32 / chroma_me=1 / trellis=2 / 8x8dct=1 / cqm=0 / deadzone=21,11 / fast_pskip=0 / chroma_qp_offset=-3 / threads=6 / lookahead_threads=1 / sliced_threads=0 / nr=0 / decimate=1 / interlaced=0 / bluray_compat=0 / constrained_intra=0 / bframes=9 / b_pyramid=2 / b_adapt=2 / b_bias=0 / direct=3 / weightb=1 / open_gop=0 / weightp=2 / keyint=250 / keyint_min=24 / scenecut=40 / intra_refresh=0 / rc=crf / mbtree=0 / crf=18.0 / qcomp=0.60 / qpmin=0 / qpmax=69 / qpstep=4 / ip_ratio=1.40 / pb_ratio=1.30 / aq=1:0.90
Language : English
Default : Yes
Forced : No
Audio #1
ID : 2
Format : AC-3
Format/Info : Audio Coding 3
Mode extension : CM (complete main)
Codec ID : A_AC3
Duration : 1h 2mn
Bit rate mode : Constant
Bit rate : 192 Kbps
Channel(s) : 2 channels
Channel positions : Front: L R
Sampling rate : 48.0 KHz
Bit depth : 16 bits
Compression mode : Lossy
Stream size : 85.5 MiB (5%)
Title : Профессиональный многоголосый, AlexFilm
Language : Russian
Default : Yes
Forced : No
Audio #2
ID : 3
Format : AC-3
Format/Info : Audio Coding 3
Mode extension : CM (complete main)
Codec ID : A_AC3
Duration : 1h 2mn
Bit rate mode : Constant
Bit rate : 192 Kbps
Channel(s) : 2 channels
Channel positions : Front: L R
Sampling rate : 48.0 KHz
Bit depth : 16 bits
Compression mode : Lossy
Stream size : 85.5 MiB (5%)
Title : English
Language : English
Default : No
Forced : No

Качество: HDTVRip-AVC
Формат: AVC (библиотека кодирования x.264)
Контейнер (Расширение): MKV
Видео: 1024x578 (16:9), 3 234 Кбит/сек, 25 кадр/сек, 0,219 Бит/[Пиксели*Кадры]
Аудио №1: русский / AC3 / 2.0 / 48 kHz / 192 kbps / |Профессиональный многоголосый, AlexFilm|
Аудио №2: английский / AC3 / 2.0 / 48 kHz / 192 kbps /
Продолжительность: 01:03:00
Format : Matroska
Format version : Version 2
File size : 1.62 GiB
Duration : 1h 2mn
Overall bit rate : 3 692 Kbps
Movie name : Top Gir: Specvypusk v Patagonii (2 chast').(2014).HDTVRip-AVC.[denis100]
Encoded date : UTC 2015-01-05 15:13:18
Writing application : mkvmerge v5.8.0 ('No Sleep / Pillow') built on Sep 2 2012 15:37:04
Writing library : libebml v1.2.3 + libmatroska v1.3.0
Video
ID : 1
Format : AVC
Format/Info : Advanced Video Codec
Format profile : High@L4.1
Format settings, CABAC : Yes
Format settings, ReFrames : 11 frames
Codec ID : V_MPEG4/ISO/AVC
Duration : 1h 2mn
Bit rate : 3 234 Kbps
Width : 1 024 pixels
Height : 576 pixels
Display aspect ratio : 16:9
Frame rate mode : Constant
Frame rate : 25.000 fps
Color space : YUV
Chroma subsampling : 4:2:0
Bit depth : 8 bits
Scan type : Progressive
Bits/(Pixel*Frame) : 0.219
Stream size : 1.42 GiB (88%)
Title : Top Gir: Specvypusk v Patagonii (2 chast').(2014).HDTVRip-AVC.[denis100]
Writing library : x264 core 142 r2491 24e4fed
Encoding settings : cabac=1 / ref=11 / deblock=1:-3:-3 / analyse=0x3:0x133 / me=umh / subme=11 / psy=1 / psy_rd=1.00:0.10 / mixed_ref=1 / me_range=32 / chroma_me=1 / trellis=2 / 8x8dct=1 / cqm=0 / deadzone=21,11 / fast_pskip=0 / chroma_qp_offset=-3 / threads=6 / lookahead_threads=1 / sliced_threads=0 / nr=0 / decimate=1 / interlaced=0 / bluray_compat=0 / constrained_intra=0 / bframes=9 / b_pyramid=2 / b_adapt=2 / b_bias=0 / direct=3 / weightb=1 / open_gop=0 / weightp=2 / keyint=250 / keyint_min=24 / scenecut=40 / intra_refresh=0 / rc=crf / mbtree=0 / crf=18.0 / qcomp=0.60 / qpmin=0 / qpmax=69 / qpstep=4 / ip_ratio=1.40 / pb_ratio=1.30 / aq=1:0.90
Language : English
Default : Yes
Forced : No
Audio #1
ID : 2
Format : AC-3
Format/Info : Audio Coding 3
Mode extension : CM (complete main)
Format settings, Endianness : Big
Codec ID : A_AC3
Duration : 1h 2mn
Bit rate mode : Constant
Bit rate : 192 Kbps
Channel(s) : 2 channels
Channel positions : Front: L R
Sampling rate : 48.0 KHz
Bit depth : 16 bits
Compression mode : Lossy
Stream size : 86.5 MiB (5%)
Title : Профессиональный многоголосый, AlexFilm
Language : Russian
Default : Yes
Forced : No
Audio #2
ID : 3
Format : AC-3
Format/Info : Audio Coding 3
Mode extension : CM (complete main)
Format settings, Endianness : Big
Codec ID : A_AC3
Duration : 1h 2mn
Bit rate mode : Constant
Bit rate : 192 Kbps
Channel(s) : 2 channels
Channel positions : Front: L R
Sampling rate : 48.0 KHz
Bit depth : 16 bits
Compression mode : Lossy
Stream size : 86.5 MiB (5%)
Title : English
Language : English
Default : No
Forced : No

Автор рипа: Сообщество:



   Похожие торренты   Торрент   Размер 
В этой теме нет новых непрочитанных сообщений. Топ Гир: Спецвыпуск в Патагонии. 1 часть / Top Gear: Patagonia Special. Part 1 (2014) HDTVRip | P

238 | 4

893.77 МБ

В этой теме нет новых непрочитанных сообщений. Топ Гир: Спецвыпуск в Патагонии. 1 часть / Top Gear: Patagonia Special. Part 1 (2014) HDTVRip | P

348 | 59

1.76 ГБ

В этой теме нет новых непрочитанных сообщений. Топ Гир: Спецвыпуск в Патагонии / Top Gear: Patagonia Special [01-02 из 2] (2014) HDTVRip | Gears Media

340 | 57

1.48 ГБ

В этой теме нет новых непрочитанных сообщений. Топ Гир: Спецвыпуск в Патагонии. 1 часть / Top Gear: Patagonia Special. Part 1 (2014) HDTVRip 720p | P

330 | 64

4.72 ГБ

В этой теме нет новых непрочитанных сообщений. Топ Гир: Спецвыпуск в Патагонии. 1 часть / Top Gear: Patagonia Special. Part 1 (2014) HDTVRip 720p | P

489 | 3

2.29 ГБ

В этой теме нет новых непрочитанных сообщений. Топ Гир: Спецвыпуск в Патагонии / Top Gear: Patagonia Special [01-02 из 2] (2014) HDTVRip 720p | Gears Media

284 | 46

3.47 ГБ

В этой теме нет новых непрочитанных сообщений. Топ Гир: Спецвыпуск в Патагонии (1-2 части) / Top Gear: Top Gear: Patagonia Special (part 1-2) [02x02] (2014) HDTV 1080i от AlexFilm

2251 | 528

6.22 ГБ




Вы не можете начинать темы
Вы не можете отвечать на сообщения
Вы не можете редактировать свои сообщения
Вы не можете удалять свои сообщения
Вы не можете добавлять вложения

Перейти:  
Для Мосгорсуда, Роскомнадзора и рекламодателей: mosgorsud-torrent[собачка]yandex.ru
 Вход
ppkBB3cker v.2 © 2008-2014 @ PPK
[ Time : 0.041s | 17 Queries | GZIP : Off ]

Торрент трекер RUTOR.IN, Не можете зайти на rutor.org? Какой новый адрес рутор? Какое зеркало рутор? Не работает rutor.org и зеркала? Тогда наш торрент специально для вас. Rutor.in неофициальное зеркало rutor. В случае если у Вас заблокирован rutor или вдруг Вы не можете на него зайти, то Вы без труда сможете скачать бесплатно и без рекламы последние новинки кино, игр, сериалов и прочего у нас, на Rutor.in. Не нужно использовать прокси, чтобы зайти на рутор, достаточно воспользоваться нашим ресурсом. Все новые фильмы, игры, сериалы, книги и музыка за 2013 и 2014 годы через торрент бесплатно. Скачивайте фильмы в хорошем качестве, игры для пк, xbox, playstation без регистрации. У нас вы найдете новые Зарубежные сериалы и Русские сериалы 2013, 2014, 2015 годов. Оставайтесь с нами, качайте любимые фильмы, игры, сериалы, книги и музыку.