img image001 image001 image001 image001 image001 image001 image001 image001 image001 image001 image001 image001 image001 image001 image001

Planets Sun Sun Sun
Статистика раздачи
Автор: Nickolas3434 | Размер: 1.48 ГБ | Добавлен: 07 янв 2015
Раздают: 340    Качают: 57
Скачать торрент
Скачать торрент
Описание торрента

СообщениеДобавлено: 07 янв 2015 

Страна: Великобритания
Режиссер: Джеймс Брюс
Жанр: Автопередача
Дата выпуска: 2014
Продолжительность: 2 х ~ 62 мин
Перевод: Профессиональный многоголосый закадровый [Gears Media]
Описание: Джереми Кларксон, Ричард Хаммонд и Джеймс Мэй совершают суровое путешествие длиной 2500 км по впечатляющим ландшафтам Патагонии на трёх спорткарах с двигателями V8.
На пути к самому южному городу в мире им встретятся ухабистые дороги, разрушенные мосты, сломанные кости и даже корова.
Их ждут потрясающие пейзажи, механические поломки и изнурительное бездорожье, пока ужасающая череда событий не приведёт к ошеломляющей кульминации.
Семпл
Файл
Качество видео: HDTVRip
Формат видео: AVI
Видео: 720x400 (1.80:1), 23.976 fps, XviD build 50 ~1365 kbps avg, 0.20 bit/pixel
Аудио: 48 kHz, MPEG Layer 3, 2 ch, ~320.00 kbps avg


Формат : AVI
Формат/Информация : Audio Video Interleave
Размер файла : 757 Мбайт
Продолжительность : 1 ч. 2 м.
Общий поток : 1694 Кбит/сек
Программа кодирования : VirtualDubMod 1.5.10.2 (build 2540/release)
Библиотека кодирования : VirtualDubMod build 2540/release
Видео
Идентификатор : 0
Формат : MPEG-4 Visual
Профиль формата : Advanced Simple@L5
Параметр BVOP формата : 2
Параметр QPel формата : Нет
Параметр GMC формата : Без точки перехода
Параметр матрицы формата : Default (MPEG)
Идентификатор кодека : XVID
Идентификатор кодека/Подсказка : XviD
Продолжительность : 1 ч. 2 м.
Битрейт : 1364 Кбит/сек
Ширина : 720 пикселей
Высота : 400 пикселей
Соотношение сторон : 16:9
Частота кадров : 23,976 кадра/сек
Цветовое пространство : YUV
Субдискретизация насыщенности : 4:2:0
Битовая глубина : 8 бит
Тип развёртки : Прогрессивная
Метод сжатия : С потерями
Бит/(Пиксели*Кадры) : 0.198
Размер потока : 610 Мбайт (81%)
Библиотека кодирования : XviD 1.2.1 (UTC 2008-12-04)
Аудио
Идентификатор : 1
Формат : MPEG Audio
Версия формата : Version 1
Профиль формата : Layer 3
Режим : Joint stereo
Расширение режима : MS Stereo
Идентификатор кодека : 55
Идентификатор кодека/Подсказка : MP3
Продолжительность : 1 ч. 2 м.
Вид битрейта : Постоянный
Битрейт : 320 Кбит/сек
Каналы : 2 канала
Частота : 48,0 КГц
Метод сжатия : С потерями
Размер потока : 143 Мбайт (19%)
Выравнивание : Соединение по промежуткам
Продолжительность промежутка : 42 мс. (1,00 видеокадр)
Время предзагрузки промежутка : 504 мс.

Релиз от: Gears Media



   Похожие торренты   Торрент   Размер 
В этой теме нет новых непрочитанных сообщений. Топ Гир: Спецвыпуск в Патагонии / Top Gear: Patagonia Special [01-02 из 2] (2014) HDTVRip 720p | Gears Media

284 | 46

3.47 ГБ

В этой теме нет новых непрочитанных сообщений. Топ Гир: Спецвыпуск в Патагонии / Top Gear: Patagonia Special [01-02 из 2] (2014) HDTVRip-AVC от NNNB

195 | 39

3.18 ГБ

В этой теме нет новых непрочитанных сообщений. Топ Гир: Спецвыпуск в Патагонии. 1 часть / Top Gear: Patagonia Special. Part 1 (2014) HDTVRip | P

348 | 59

1.76 ГБ

В этой теме нет новых непрочитанных сообщений. Топ Гир: Спецвыпуск в Патагонии. 1 часть / Top Gear: Patagonia Special. Part 1 (2014) HDTVRip | P

238 | 4

893.77 МБ

В этой теме нет новых непрочитанных сообщений. Топ Гир: Спецвыпуск в Патагонии. 1 часть / Top Gear: Patagonia Special. Part 1 (2014) HDTVRip 720p | P

330 | 64

4.72 ГБ

В этой теме нет новых непрочитанных сообщений. Топ Гир: Спецвыпуск в Патагонии. 1 часть / Top Gear: Patagonia Special. Part 1 (2014) HDTVRip 720p | P

489 | 3

2.29 ГБ

В этой теме нет новых непрочитанных сообщений. Топ Гир: Спецвыпуск в Патагонии (1-2 части) / Top Gear: Top Gear: Patagonia Special (part 1-2) [02x02] (2014) HDTV 1080i от AlexFilm

2251 | 528

6.22 ГБ




Вы не можете начинать темы
Вы не можете отвечать на сообщения
Вы не можете редактировать свои сообщения
Вы не можете удалять свои сообщения
Вы не можете добавлять вложения

Перейти:  
Для Мосгорсуда, Роскомнадзора и рекламодателей: mosgorsud-torrent[собачка]yandex.ru
 Вход
ppkBB3cker v.2 © 2008-2014 @ PPK
[ Time : 0.063s | 17 Queries | GZIP : Off ]
CGP output time : 0.008s | 5 Queries | GZIP : Off

Торрент трекер RUTOR.IN, Не можете зайти на rutor.org? Какой новый адрес рутор? Какое зеркало рутор? Не работает rutor.org и зеркала? Тогда наш торрент специально для вас. Rutor.in неофициальное зеркало rutor. В случае если у Вас заблокирован rutor или вдруг Вы не можете на него зайти, то Вы без труда сможете скачать бесплатно и без рекламы последние новинки кино, игр, сериалов и прочего у нас, на Rutor.in. Не нужно использовать прокси, чтобы зайти на рутор, достаточно воспользоваться нашим ресурсом. Все новые фильмы, игры, сериалы, книги и музыка за 2013 и 2014 годы через торрент бесплатно. Скачивайте фильмы в хорошем качестве, игры для пк, xbox, playstation без регистрации. У нас вы найдете новые Зарубежные сериалы и Русские сериалы 2013, 2014, 2015 годов. Оставайтесь с нами, качайте любимые фильмы, игры, сериалы, книги и музыку.