img image001 image001 image001 image001 image001 image001 image001 image001 image001 image001 image001 image001 image001 image001 image001

Planets Sun Sun Sun
Статистика раздачи
Автор: Nickolas3434 | Размер: 4.19 ГБ | Добавлен: 08 янв 2015
Раздают: 112    Качают: 5
Скачать торрент
Скачать торрент
Описание торрента

СообщениеДобавлено: 08 янв 2015 

Оригинальное название: Дмитрий Хворостовский и друзья - детям
Жанр: Концерт
Год выхода: 2015
Выпущено: Россия
Описание: Благотворительный концерт одного из самых популярных оперных певцов мира Дмитрия Хворостовского и его друзей, звезд мировой оперной сцены, прошел в Государственном Кремлевском Дворце. Собранные средства организаторы направили на лечение детей с тяжелыми заболеваниями, а также в поддержку детей-сирот и многодетных семей. Дирижер благотворительного вечера - маэстро Константин Орбелян. Так же на концерте выступят юные солисты "Творческой школы "Мастер-класс", хор и оркестр "Новой Оперы", призеры ежегодного фестиваля воспитанников детских домов России и многие другие приглашенные звезды.
General
ID : 1 (0x1)
Complete name : E:UsersМаксимкаDownloadsДмитрий Хворостовский и друзья - детям (2015) HDTV 1080i.ts
Format : MPEG-TS
File size : 4.19 GiB
Duration : 57mn 44s
Overall bit rate : 10.4 Mbps
Video
ID : 1901 (0x76D)
Menu ID : 1 (0x1)
Format : AVC
Format/Info : Advanced Video Codec
Format profile : High@L4.0
Format settings, CABAC : Yes
Format settings, ReFrames : 3 frames
Codec ID : 27
Duration : 57mn 44s
Bit rate : 9 655 Kbps
Width : 1 920 pixels
Height : 1 080 pixels
Display aspect ratio : 16:9
Frame rate : 25.000 fps
Standard : Component
Color space : YUV
Chroma subsampling : 4:2:0
Bit depth : 8 bits
Scan type : Interlaced
Scan order : Top Field First
Bits/(Pixel*Frame) : 0.186
Stream size : 3.89 GiB (93%)
Color primaries : BT.709-5, BT.1361, IEC 61966-2-4, SMPTE RP177
Transfer characteristics : BT.709-5, BT.1361
Matrix coefficients : BT.709-5, BT.1361, IEC 61966-2-4 709, SMPTE RP177
Audio
ID : 2901 (0xB55)
Menu ID : 1 (0x1)
Format : MPEG Audio
Format version : Version 1
Format profile : Layer 2
Codec ID : 3
Duration : 57mn 44s
Bit rate mode : Constant
Bit rate : 224 Kbps
Channel(s) : 2 channels
Sampling rate : 48.0 KHz
Compression mode : Lossy
Stream size : 92.5 MiB (2%)
Language : Russian

Качество: HDTV 1080i
Видео: 1920х1080 (16:9), 25 fps, AVC MPEG-4 (x264), High@L4.0 9655 kbps avg, 0.186 bit/pixel
Аудио: 48 kHz, MP2, 2 ch, 224 kbps avg
Продолжительность: 00:57:44
Перевод: Не требуется



   Похожие торренты   Торрент   Размер 
В этой теме нет новых непрочитанных сообщений. Дмитрий Хворостовский и друзья (2015) HDTV 720p от Files-х

49 | 4

1020.93 МБ

В этой теме нет новых непрочитанных сообщений. Дмитрий Хворостовский и друзья (2015) HDTVRip от Files-х

29 | 4

958.32 МБ

В этой теме нет новых непрочитанных сообщений. Дмитрий Хворостовский. Большой праздничный концерт - Песни Великой Победы (2015) HDTV (1080i) от Files-x

76 | 13

2.84 ГБ

В этой теме нет новых непрочитанных сообщений. Дмитрий Хворостовский. Большой праздничный концерт - Песни Великой Победы (2015) HDTVRip от Files-x

142 | 9

917.16 МБ

В этой теме нет новых непрочитанных сообщений. Дмитрий Хворостовский - Романсы (2011) MP3

30 | 12

195.93 МБ

В этой теме нет новых непрочитанных сообщений. Дмитрий Хворостовский - Дискография (1990-2011) MP3

39 | 12

4.13 ГБ

В этой теме нет новых непрочитанных сообщений. Игорь Крутой & Дмитрий Хворостовский - Дежавю (2009) MP3

11 | 5

267.81 МБ




Вы не можете начинать темы
Вы не можете отвечать на сообщения
Вы не можете редактировать свои сообщения
Вы не можете удалять свои сообщения
Вы не можете добавлять вложения

Перейти:  
Для Мосгорсуда, Роскомнадзора и рекламодателей: mosgorsud-torrent[собачка]yandex.ru
 Вход
ppkBB3cker v.2 © 2008-2014 @ PPK
[ Time : 0.528s | 15 Queries | GZIP : Off ]

Торрент трекер RUTOR.IN, Не можете зайти на rutor.org? Какой новый адрес рутор? Какое зеркало рутор? Не работает rutor.org и зеркала? Тогда наш торрент специально для вас. Rutor.in неофициальное зеркало rutor. В случае если у Вас заблокирован rutor или вдруг Вы не можете на него зайти, то Вы без труда сможете скачать бесплатно и без рекламы последние новинки кино, игр, сериалов и прочего у нас, на Rutor.in. Не нужно использовать прокси, чтобы зайти на рутор, достаточно воспользоваться нашим ресурсом. Все новые фильмы, игры, сериалы, книги и музыка за 2013 и 2014 годы через торрент бесплатно. Скачивайте фильмы в хорошем качестве, игры для пк, xbox, playstation без регистрации. У нас вы найдете новые Зарубежные сериалы и Русские сериалы 2013, 2014, 2015 годов. Оставайтесь с нами, качайте любимые фильмы, игры, сериалы, книги и музыку.