img image001 image001 image001 image001 image001 image001 image001 image001 image001 image001 image001 image001 image001 image001 image001

Planets Sun Sun Sun
Статистика раздачи
Автор: Nickolas3434 | Размер: 3.63 ГБ | Добавлен: 08 янв 2015
Раздают: 58    Качают: 10
Скачать торрент
Скачать торрент
Описание торрента

СообщениеДобавлено: 08 янв 2015 

Оригинальное название: Вифлеем. Город Иисуса
Жанр: Документальный
Год выхода: 2015
Выпущено: Россия, Первый канал
Описание: Вифлеем. Это священный для христиан город. Каждый из нас слышал о его существовании. Все, что написано в Евангелиях о рождении Христа, связано именно с этими местами. Новый завет - это фактически путеводитель по святой земле и, разумеется, по Вифлеему. Рождество - главный праздник города. Мы покажем, как он выглядит и что здесь происходит в рождественские дни. Отмечать Рождество здесь начинают задолго до заката.В Палестине к христианским праздникам особое отношение: даже арабы-мусульмане приезжают сюда, чтобы показать христианам свое уважение. Количество паломников обычно превышает все допустимые санитарные нормы. Но ни на площади, ни в храме не бывает давки. Только хаотичное, шумное броуновское движение людей. В эти дни город преображается до неузнаваемости - повсюду развешаны разноцветные флажки и рождественские звезды. А на площади бойко идет торговля рождественскими сувенирами и пряностями.Рождество в Вифлееме отмечают 2 раза - 25 декабря и 7 января. Первыми празднуют христиане западной, латинской традиции. Вторая волна праздников проходится на привычные нам дни - 6 и 7 января. Именно тогда отмечают Рождество православные христиане и все, кто живет по юлианскому календарю...
General
ID : 1 (0x1)
Complete name : E:UsersМаксимкаDownloadsВифлеем. Город Иисуса (2015) HDTV 1080i.ts
Format : MPEG-TS
File size : 3.63 GiB
Duration : 49mn 29s
Overall bit rate : 10.5 Mbps
Video
ID : 1603 (0x643)
Menu ID : 1 (0x1)
Format : AVC
Format/Info : Advanced Video Codec
Format profile : High@L4.0
Format settings, CABAC : Yes
Format settings, ReFrames : 3 frames
Codec ID : 27
Duration : 49mn 29s
Bit rate : 9 793 Kbps
Width : 1 920 pixels
Height : 1 080 pixels
Display aspect ratio : 16:9
Frame rate : 25.000 fps
Standard : Component
Color space : YUV
Chroma subsampling : 4:2:0
Bit depth : 8 bits
Scan type : Interlaced
Scan order : Top Field First
Bits/(Pixel*Frame) : 0.189
Stream size : 3.39 GiB (93%)
Color primaries : BT.709-5, BT.1361, IEC 61966-2-4, SMPTE RP177
Transfer characteristics : BT.709-5, BT.1361
Matrix coefficients : BT.709-5, BT.1361, IEC 61966-2-4 709, SMPTE RP177
Audio
ID : 2603 (0xA2B)
Menu ID : 1 (0x1)
Format : MPEG Audio
Format version : Version 1
Format profile : Layer 2
Codec ID : 3
Duration : 49mn 29s
Bit rate mode : Constant
Bit rate : 192 Kbps
Channel(s) : 2 channels
Sampling rate : 48.0 KHz
Compression mode : Lossy
Stream size : 68.0 MiB (2%)
Language : Russian

Качество: HDTV 1080i
Видео: 1920х1080 (16:9), 25 fps, AVC MPEG-4 (x264), High@L4.0 9793 kbps avg, 0.189 bit/pixel
Аудио: 48 kHz, MP2, 2 ch, 192 kbps avg
Продолжительность: 00:49:29
Перевод: Не требуется



   Похожие торренты   Торрент   Размер 
В этой теме нет новых непрочитанных сообщений. Вифлеем. Город Иисуса (2015) SATRip

93 | 6

711.88 МБ

В этой теме нет новых непрочитанных сообщений. Вифлеем. Город Иисуса (2015) HDTVRip

62 | 4

583.34 МБ

В этой теме нет новых непрочитанных сообщений. Убийство Иисуса / Killing Jesus (2015) HDTV 1080i от Deadmauvlad | P1

242 | 30

7.97 ГБ

В этой теме нет новых непрочитанных сообщений. Запретный город / The Forbidden City (2005) HDTV 1080i

14 | 32

33.75 ГБ

В этой теме нет новых непрочитанных сообщений. Убийство Иисуса / Killing Jesus (2015) WEBRip | P1

629 | 85

1.35 ГБ

В этой теме нет новых непрочитанных сообщений. Убийство Иисуса / Killing Jesus (2015) HDTVRip-AVC | P1

80 | 10

745.91 МБ

В этой теме нет новых непрочитанных сообщений. Убийство Иисуса / Killing Jesus (2015) HDRip P1

254 | 28

2.06 ГБ




Вы не можете начинать темы
Вы не можете отвечать на сообщения
Вы не можете редактировать свои сообщения
Вы не можете удалять свои сообщения
Вы не можете добавлять вложения

Перейти:  
Для Мосгорсуда, Роскомнадзора и рекламодателей: mosgorsud-torrent[собачка]yandex.ru
 Вход
ppkBB3cker v.2 © 2008-2014 @ PPK
[ Time : 2.866s | 15 Queries | GZIP : Off ]

Торрент трекер RUTOR.IN, Не можете зайти на rutor.org? Какой новый адрес рутор? Какое зеркало рутор? Не работает rutor.org и зеркала? Тогда наш торрент специально для вас. Rutor.in неофициальное зеркало rutor. В случае если у Вас заблокирован rutor или вдруг Вы не можете на него зайти, то Вы без труда сможете скачать бесплатно и без рекламы последние новинки кино, игр, сериалов и прочего у нас, на Rutor.in. Не нужно использовать прокси, чтобы зайти на рутор, достаточно воспользоваться нашим ресурсом. Все новые фильмы, игры, сериалы, книги и музыка за 2013 и 2014 годы через торрент бесплатно. Скачивайте фильмы в хорошем качестве, игры для пк, xbox, playstation без регистрации. У нас вы найдете новые Зарубежные сериалы и Русские сериалы 2013, 2014, 2015 годов. Оставайтесь с нами, качайте любимые фильмы, игры, сериалы, книги и музыку.