img image001 image001 image001 image001 image001 image001 image001 image001 image001 image001 image001 image001 image001 image001 image001

Planets Sun Sun Sun
Статистика раздачи
Автор: Nickolas3434 | Размер: 1.77 ГБ | Добавлен: 13 янв 2015
Раздают: 18    Качают: 3
Скачать торрент
Скачать торрент
Описание торрента

СообщениеДобавлено: 13 янв 2015 

Информация о фильме
Название: Поцелуй меня, Генри! / Когда лошадь теряет сознание
Год выхода: 1999
Жанр: Драма
Режиссер: Владимир Короткевич
В ролях:
Генри-Джеймс Честерфилд - нар. арт. Республики Беларусь Юрий Шефер
Фелисити Честерфилд - Надежда Беляева
Сомс - Александр Лавринович
Присцилла Честерфилд - Наталья Деберина
Юбер Дарсей - засл. арт. Республики Беларусь Юрий Фейгин
Бертран Честерфилд - Сергей Лагутенко
Коралия Вернэ - Татьяна Змитюро
Хэмфри Дартон - Юрий Мартинович
О фильме:
Спектакль по пьесе Франсуазы Саган "Когда лошадь теряет сознание".
Перед зрителем разворачивается картина семейных отношений Честерфилдов: властная мать семейства Фелисити, потерявший интерес к жизни отец Генри, вырвавшаяся на волю и потерявшая от этого способность здраво мыслить дочь Присцилла и глубоко ушедший в философию и аскетизм сын Бертран. Зритель наблюдает, как безумные желания перемен озаряют людей, вытягивая их к кардинальных изменениям, и как сложно снова вернуться к привычной жизни, снова существовать, как загнанная лошадь, таща за собой свой груз переживаний...

Благодарность:
Исходник для данной раздачи, записан с цифрового наземного канала, т.е. DVB-Т, любезно предоставлен PavelDAS
За что ему большое спасибо!
Помощь с описанием: Bartimeyse
Запись потока *.ts с наземного цифрового телеканала "Беларусь 3", ремукс в *.mkv программой VideoReDo.

Страна: Республика Беларусь
Студия: Гомельский областной драматический театр
Продолжительность: 2-а действия 00:53:20 + 00:51:28
Перевод: Перевод: Не требуется
Язык: Русский
Файл
Кодек: AVC (H264)
Качество видео: DVB
Формат видео: MKV
Видео 1: AVC (H264), 720x576@785x576 (4:3), анаморф, 25 fps, 2 108 Kbps
Видео 2: AVC (H264), 720x576@785x576 (4:3), анаморф, 25 fps, 2 108 Kbps
Аудио: MP2, 256 kbps, 2 channels, 48 kHz
Семпл
Код:
General
Unique ID                      : 145069827248961526350240458500658069131 (0x6D236EB3E6E5E6A72BEDD672A36A7E8B)
Complete name                  : D:ТеатрПоцелуй меня, Генри! (1999)Поцелуй меня, Генри!(1999)Поцелуй меня, Генри!_01_1999.mkv
Format                         : Matroska
Format version                 : Version 2
File size                      : 920 MiB
Duration                       : 53mn 19s
Overall bit rate               : 2 411 Kbps
Writing application            : Lavf52.64.2
Writing library                : Lavf52.64.2
Video
ID                             : 1
Format                         : AVC
Format/Info                    : Advanced Video Codec
Format profile                 : Main@L3.0
Format settings, CABAC         : Yes
Format settings, ReFrames      : 4 frames
Format settings, GOP           : M=4, N=24
Codec ID                       : V_MPEG4/ISO/AVC
Duration                       : 53mn 19s
Bit rate                       : 2 107 Kbps
Width                          : 720 pixels
Height                         : 576 pixels
Display aspect ratio           : 4:3
Original display aspect ratio  : 4:3
Frame rate mode                : Constant
Frame rate                     : 25.000 fps
Standard                       : PAL
Color space                    : YUV
Chroma subsampling             : 4:2:0
Bit depth                      : 8 bits
Scan type                      : MBAFF
Scan order                     : Top Field First
Bits/(Pixel*Frame)             : 0.203
Stream size                    : 804 MiB (87%)
Default                        : Yes
Forced                         : No
Color primaries                : BT.601 PAL
Transfer characteristics       : BT.470 System B, BT.470 System G
Matrix coefficients            : BT.601
Color range                    : Limited
Audio
ID                             : 2
Format                         : MPEG Audio
Format version                 : Version 1
Format profile                 : Layer 2
Codec ID                       : A_MPEG/L2
Codec ID/Hint                  : MP2
Duration                       : 53mn 19s
Bit rate mode                  : Constant
Bit rate                       : 256 Kbps
Channel(s)                     : 2 channels
Sampling rate                  : 48.0 KHz
Compression mode               : Lossy
Stream size                    : 97.7 MiB (11%)
Language                       : Russian
Default                        : Yes
Forced                         : No


Код:
General
Unique ID                      : 212918498309741127230396954004356348248 (0xA02E9C7509EA7407A0289445B80C3958)
Complete name                  : D:ТеатрПоцелуй меня, Генри! (1999)Поцелуй меня, Генри!(1999)Поцелуй меня, Генри!_02_1999.mkv
Format                         : Matroska
Format version                 : Version 2
File size                      : 888 MiB
Duration                       : 51mn 28s
Overall bit rate               : 2 412 Kbps
Writing application            : Lavf52.64.2
Writing library                : Lavf52.64.2
Video
ID                             : 1
Format                         : AVC
Format/Info                    : Advanced Video Codec
Format profile                 : Main@L3.0
Format settings, CABAC         : Yes
Format settings, ReFrames      : 4 frames
Format settings, GOP           : M=4, N=24
Codec ID                       : V_MPEG4/ISO/AVC
Duration                       : 51mn 28s
Bit rate                       : 2 108 Kbps
Width                          : 720 pixels
Height                         : 576 pixels
Display aspect ratio           : 4:3
Original display aspect ratio  : 4:3
Frame rate mode                : Constant
Frame rate                     : 25.000 fps
Standard                       : PAL
Color space                    : YUV
Chroma subsampling             : 4:2:0
Bit depth                      : 8 bits
Scan type                      : MBAFF
Scan order                     : Top Field First
Bits/(Pixel*Frame)             : 0.203
Stream size                    : 776 MiB (87%)
Default                        : Yes
Forced                         : No
Color primaries                : BT.601 PAL
Transfer characteristics       : BT.470 System B, BT.470 System G
Matrix coefficients            : BT.601
Color range                    : Limited
Audio
ID                             : 2
Format                         : MPEG Audio
Format version                 : Version 1
Format profile                 : Layer 2
Codec ID                       : A_MPEG/L2
Codec ID/Hint                  : MP2
Duration                       : 51mn 28s
Bit rate mode                  : Constant
Bit rate                       : 256 Kbps
Channel(s)                     : 2 channels
Sampling rate                  : 48.0 KHz
Compression mode               : Lossy
Stream size                    : 94.3 MiB (11%)
Language                       : Russian
Default                        : Yes
Forced                         : No




   Похожие торренты   Торрент   Размер 
В этой теме нет новых непрочитанных сообщений. Спектакль - Чайка (1999) DVB от AND03AND

19 | 34

3.4 ГБ

В этой теме нет новых непрочитанных сообщений. Спектакль - Чудаки (2007) DVB от AND03AND

15 | 22

3.4 ГБ

В этой теме нет новых непрочитанных сообщений. Спектакль - Тартюф (2008) DVB-AVC от AND03AND

19 | 10

1.53 ГБ

В этой теме нет новых непрочитанных сообщений. Спектакль - Всё в саду (1992) DVB от AND03AND

56 | 14

2.98 ГБ

В этой теме нет новых непрочитанных сообщений. Спектакль - Бабье царство (1987) DVB от AND03AND

20 | 3

2.36 ГБ

В этой теме нет новых непрочитанных сообщений. Спектакль - Анна Снегина (2014) DVB от AND03AND

15 | 18

1.5 ГБ

В этой теме нет новых непрочитанных сообщений. Спектакль - Валентинов день (2007) DVB от AND03AND

6 | 11

3.45 ГБ




Вы не можете начинать темы
Вы не можете отвечать на сообщения
Вы не можете редактировать свои сообщения
Вы не можете удалять свои сообщения
Вы не можете добавлять вложения

Перейти:  
Для Мосгорсуда, Роскомнадзора и рекламодателей: mosgorsud-torrent[собачка]yandex.ru
 Вход
ppkBB3cker v.2 © 2008-2014 @ PPK
[ Time : 0.080s | 15 Queries | GZIP : Off ]

Торрент трекер RUTOR.IN, Не можете зайти на rutor.org? Какой новый адрес рутор? Какое зеркало рутор? Не работает rutor.org и зеркала? Тогда наш торрент специально для вас. Rutor.in неофициальное зеркало rutor. В случае если у Вас заблокирован rutor или вдруг Вы не можете на него зайти, то Вы без труда сможете скачать бесплатно и без рекламы последние новинки кино, игр, сериалов и прочего у нас, на Rutor.in. Не нужно использовать прокси, чтобы зайти на рутор, достаточно воспользоваться нашим ресурсом. Все новые фильмы, игры, сериалы, книги и музыка за 2013 и 2014 годы через торрент бесплатно. Скачивайте фильмы в хорошем качестве, игры для пк, xbox, playstation без регистрации. У нас вы найдете новые Зарубежные сериалы и Русские сериалы 2013, 2014, 2015 годов. Оставайтесь с нами, качайте любимые фильмы, игры, сериалы, книги и музыку.