img image001 image001 image001 image001 image001 image001 image001 image001 image001 image001 image001 image001 image001 image001 image001

Planets Sun Sun Sun
Статистика раздачи
Автор: Nickolas3434 | Размер: 4.46 ГБ | Добавлен: 13 янв 2015
Раздают: 331    Качают: 40
Скачать торрент
Скачать торрент
Описание торрента

СообщениеДобавлено: 13 янв 2015 

Оригинальное название: Роза Хутор. Рождество 2015
Год выхода: 2015
Жанр: Pop
В ролях: Григорий Лепс, Валерий Меладзе, Стас Михайлов, Ирина Аллегрова, Юлия Паршута, Кристина Орбакайте, Ани Лорак, Иосиф Кобзон, Светлана Лобода, Emin, Маша Распутина, Нюша, Шариф, Сергей Лазарев, Нико Неман, Стас Пьеха, Никита Пресняков, Тимати и другие


Описание:
«Роза Хутор» - музыкальный фестиваль, на котором выступят самые популярные отечественные исполнители, а также самые яркие участники проекта «Голос» и исполнят песни, любимые десятками миллионов слушателей!
7 января в концерте Роза Хутор рождество 7 01 2015 будут принимать участие все звезды отечественной песенной сцены, а также конкурсанты телепроекта Голос. Концерт, организованный Григорием Лепсом, состоится в Сочи в селе Роза Хутор. Гала-концерт в прямом эфире будет транслировать Первый канал, в нем выступят Григорий Лепс, Валерий Меладзе, Стас Михайлов, Ирина Аллегрова, Юлия Паршута, Кристина Орбакайте, Ани Лорак, Иосиф Кобзон, Светлана Лобода, Emin, Маша Распутина, Нюша, Шариф, Сергей Лазарев, Нико Неман, Стас Пьеха, Никита Пресняков, Тимати и другие


Страна: Россия
Издатель: Первый канал
Продолжительность: 01:48:36
Язык: Русский


Файл
Формат: MKV
Качество: HD 1080i
Видео: AVC, 1920x1080, 5569 Кбит/с, 25,000 кадров/сек
Аудио: AC3, 192 кбит/с, 48,0 КГц, стерео
01. Григорий Лепс, С.Михайлов, К.Орбакайте, С.Лобода, А.Лорак,
С.Пьеха, Emin и Ш. Умханов - Самый лучший день
02. Григорий Лепс и Валерий Меладзе - Обернитесь
03. Валерий Меладзе - Ночь накануне Рождества
04. Иосиф Кобзон - Идут белые снеги
05. Кристина Орбакайте - Как в кино премьера песни
06. Нюша - Цунами
07. Григорий Лепс и Стас Пьеха - Она не твоя
08. Юлия Паршута - В тишине громких слов (песня roxette)
09. Никита Пресняков и гр. Multiverse - Белый снег
10. Emin - Я лучше всех живу
11. Светлана Лобода - 40 градусов
12. Шариф Умханов - Голос
13. Мария Воронова - Иван, Борис и я
14. Сергей Лазарев - 7 Цифр
15. Ани Лорак - Медленно
16. Григорий Лепс и Ани Лорак - Зеркала
17. Стас Михайлов Под прицелом (С тобой я на край земли)
18. Григорий Лепс и Стас Михайлов - Всё для тебя
19. Ирина Аллегрова - Новогодняя
20. Григорий Лепс и Ирина Аллегрова - Я Тебе Не Верю
21. Кристина Орбакайте - Крылья
22. Григорий Лепс и Тимати - Я уеду жить в Лондон
23. Григорий Лепс - Опять метель
24. Григорий Лепс и все - Я Счастливый как никто
Общее
Уникальный идентификатор : 168348648403719580577546155723716462494 (0x7EA6C532C2870C1E037BA147C20E879E)
Полное имя : D:ВидеоКлипы и ТрейлерыКонцертыРоза Хутор 2015Роза Хутор 2015Роза Хутор. Рождество 2015.mkv
Формат : Matroska
Версия формата : Version 2
Размер файла : 4,46 Гбайт
Продолжительность : 1 ч. 48 м.
Общий поток : 5878 Кбит/сек
Программа кодирования : Lavf51.12.1
Библиотека кодирования : Lavf51.12.1
Видео
Идентификатор : 1
Формат : AVC
Формат/Информация : Advanced Video Codec
Профиль формата : Baseline@L1.3
Параметр CABAC формата : Нет
Параметр ReFrames формата : 1 кадр
Параметр GOP формата : M=1, N=12
Идентификатор кодека : V_MPEG4/ISO/AVC
Продолжительность : 1 ч. 48 м.
Битрейт : 5569 Кбит/сек
Ширина : 1920 пикселей
Высота : 1080 пикселей
Соотношение сторон : 16:9
Режим частоты кадров : Постоянный
Частота кадров : 25,000 кадров/сек
Цветовое пространство : YUV
Субдискретизация насыщенности : 4:2:0
Битовая глубина : 8 бит
Тип развёртки : Прогрессивная
Бит/(Пиксели*Кадры) : 0.107
Размер потока : 4,22 Гбайт (95%)
Default : Да
Forced : Нет
Аудио
Идентификатор : 2
Формат : AC-3
Формат/Информация : Audio Coding 3
Расширение режима : CM (complete main)
Параметр Endianness формата : Big
Идентификатор кодека : A_AC3
Продолжительность : 1 ч. 48 м.
Вид битрейта : Постоянный
Битрейт : 192 Кбит/сек
Каналы : 2 канала
Расположение каналов : Front: L R
Частота : 48,0 КГц
Битовая глубина : 16 бит
Метод сжатия : С потерями
Размер потока : 149 Мбайт (3%)
Язык : Russian
Default : Да
Forced : Нет



   Похожие торренты   Торрент   Размер 
В этой теме нет новых непрочитанных сообщений. Роза Хутор. Рождество (2015) SATRip

172 | 38

1.72 ГБ

В этой теме нет новых непрочитанных сообщений. Роза Хутор. Рождество 2016 [1-2 из 2] (2016) HDTV 1080i от FilmRus

200 | 36

5.72 ГБ

В этой теме нет новых непрочитанных сообщений. Стивен Кинг - Роза Марена (Мареновая роза) (2015) MP3

28 | 1

1.06 ГБ

В этой теме нет новых непрочитанных сообщений. Рождество с Биллом Мюрреем / Очень Мюрреевское Рождество / A Very Murray Christmas (2015) WEBRip 720p | Ozz

1312 | 161

1.62 ГБ

В этой теме нет новых непрочитанных сообщений. Стивен Кинг - Роза Марена (Мареновая роза) (1995) (2006) MP3

19 | 5

560.76 МБ

В этой теме нет новых непрочитанных сообщений. Алая роза / Красная роза / La rose rouge (1951) DVDRip | Sub

25 | 10

1.09 ГБ

В этой теме нет новых непрочитанных сообщений. Роза Ветров - Тепло (2015) МP3

22 | 2

23.8 МБ




Вы не можете начинать темы
Вы не можете отвечать на сообщения
Вы не можете редактировать свои сообщения
Вы не можете удалять свои сообщения
Вы не можете добавлять вложения

Перейти:  
Для Мосгорсуда, Роскомнадзора и рекламодателей: mosgorsud-torrent[собачка]yandex.ru
 Вход
ppkBB3cker v.2 © 2008-2014 @ PPK
[ Time : 0.049s | 15 Queries | GZIP : On ]

Торрент трекер RUTOR.IN, Не можете зайти на rutor.org? Какой новый адрес рутор? Какое зеркало рутор? Не работает rutor.org и зеркала? Тогда наш торрент специально для вас. Rutor.in неофициальное зеркало rutor. В случае если у Вас заблокирован rutor или вдруг Вы не можете на него зайти, то Вы без труда сможете скачать бесплатно и без рекламы последние новинки кино, игр, сериалов и прочего у нас, на Rutor.in. Не нужно использовать прокси, чтобы зайти на рутор, достаточно воспользоваться нашим ресурсом. Все новые фильмы, игры, сериалы, книги и музыка за 2013 и 2014 годы через торрент бесплатно. Скачивайте фильмы в хорошем качестве, игры для пк, xbox, playstation без регистрации. У нас вы найдете новые Зарубежные сериалы и Русские сериалы 2013, 2014, 2015 годов. Оставайтесь с нами, качайте любимые фильмы, игры, сериалы, книги и музыку.