img image001 image001 image001 image001 image001 image001 image001 image001 image001 image001 image001 image001 image001 image001 image001

Planets Sun Sun Sun
Статистика раздачи
Автор: Nickolas3434 | Размер: 1.62 ГБ | Добавлен: 13 янв 2015
Раздают: 14    Качают: 7
Скачать торрент
Скачать торрент
Описание торрента

СообщениеДобавлено: 13 янв 2015 

Информация о фильме
Название: Спектакль - Наедине со всеми
Год выхода: 1993
Жанр: Драма
Режиссер: Д.Диджиокас
В ролях:
Андрей Голубев – народный артист СССР Ростислав Янковский
Наташа Голубева, его жена – заслуженная артистка БССР Людмила Былинская
О фильме:
А.Гельман известен как автор так называемых «производственных пьес». И в пьесе «Наедине со всеми» тоже много говорится о трудностях и проблемах производства, но здесь уже в гораздо большей степени исследуется психология человеческого существования, поведения, прослеживается мысль об ответственности перед другими и каждого перед самим собой.
В центре пьесы – Наташа и Андрей Голубевы. Месяц назад в семье Голубевых случилось несчастье – их сын Алёша попал в больницу, ему отняли руки. Алёша проходил практику и вместе с бригадой строителей прокладывал дорогу, где и произошла авария. И вот завтра сына нужно забирать из больницы, а сегодня Наташа узнаёт, что по вине Андрея их сын стал инвалидом, потому что Андрей, начальник строительства, отдал распоряжение о строительстве дороги, прекрасно зная, что там проходит высоковольтная линия. Знал и пошёл на это, так как уже давно самым главным для него стало выполнение плана…
Наташа и Андрей говорят о сугубо личном, но за «личным» встают важные, не всегда легко и однозначно разрешимые вопросы общественной жизни.

Исходник для данной раздачи, записан с цифрового наземного канала, т.е. DVB-Т, любезно предоставлен PavelDAS
За что ему большое спасибо!
Помощь с описанием: Bartimeyse
Запись потока *.ts с наземного цифрового телеканала "Беларусь 3", ремукс в *.mkv программой VideoReDo.

Страна: Республика Беларусь
Студия: Национальный академический драматический театр им. Максима Горького, Минск
Продолжительность: 2-а действия 00:50:22 + 00:45:42
Перевод: Не требуется
Язык: Русский
Файл
Кодек: AVC (H264)
Качество: DVB
Формат видео: MKV
Видео 1: AVC (H264), 720x576@785x576 (4:3), анаморф, 25 fps, 2 107 Kbps
Видео 2: AVC (H264), 720x576@785x576 (4:3), анаморф, 25 fps, 2 108 Kbps
Звук: MP2, 256 kbps, 2 channels, 48 kHz
Семпл
Код:
General
Unique ID                      : 335559860021688655605530520216945815043 (0xFC727A6EEBB4A503894BA07F7FEBEE03)
Complete name                  : D:ТелеспектаклиНаедине со всеми (19хх)Наедине со всеми (1993)Наедине со всеми_01_(1993).mkv
Format                         : Matroska
Format version                 : Version 2
File size                      : 869 MiB
Duration                       : 50mn 22s
Overall bit rate               : 2 411 Kbps
Writing application            : Lavf52.64.2
Writing library                : Lavf52.64.2
Video
ID                             : 1
Format                         : AVC
Format/Info                    : Advanced Video Codec
Format profile                 : Main@L3.0
Format settings, CABAC         : Yes
Format settings, ReFrames      : 4 frames
Format settings, GOP           : M=4, N=24
Codec ID                       : V_MPEG4/ISO/AVC
Duration                       : 50mn 22s
Bit rate                       : 2 107 Kbps
Width                          : 720 pixels
Height                         : 576 pixels
Display aspect ratio           : 4:3
Original display aspect ratio  : 4:3
Frame rate mode                : Constant
Frame rate                     : 25.000 fps
Standard                       : PAL
Color space                    : YUV
Chroma subsampling             : 4:2:0
Bit depth                      : 8 bits
Scan type                      : MBAFF
Scan order                     : Top Field First
Bits/(Pixel*Frame)             : 0.203
Stream size                    : 759 MiB (87%)
Default                        : Yes
Forced                         : No
Color primaries                : BT.601 PAL
Transfer characteristics       : BT.470 System B, BT.470 System G
Matrix coefficients            : BT.601
Color range                    : Limited
Audio
ID                             : 2
Format                         : MPEG Audio
Format version                 : Version 1
Format profile                 : Layer 2
Codec ID                       : A_MPEG/L2
Codec ID/Hint                  : MP2
Duration                       : 50mn 22s
Bit rate mode                  : Constant
Bit rate                       : 256 Kbps
Channel(s)                     : 2 channels
Sampling rate                  : 48.0 KHz
Compression mode               : Lossy
Stream size                    : 92.2 MiB (11%)
Language                       : Russian
Default                        : Yes
Forced                         : No


Код:
General
Unique ID                      : 277616230577229913455214098805345898333 (0xD0DAF0EF50AF9C9075B460658FD64F5D)
Complete name                  : D:ТелеспектаклиНаедине со всеми (19хх)Наедине со всеми (1993)Наедине со всеми_02_(1993).mkv
Format                         : Matroska
Format version                 : Version 2
File size                      : 788 MiB
Duration                       : 45mn 42s
Overall bit rate               : 2 412 Kbps
Writing application            : Lavf52.64.2
Writing library                : Lavf52.64.2
Video
ID                             : 1
Format                         : AVC
Format/Info                    : Advanced Video Codec
Format profile                 : Main@L3.0
Format settings, CABAC         : Yes
Format settings, ReFrames      : 4 frames
Format settings, GOP           : M=4, N=24
Codec ID                       : V_MPEG4/ISO/AVC
Duration                       : 45mn 42s
Bit rate                       : 2 108 Kbps
Width                          : 720 pixels
Height                         : 576 pixels
Display aspect ratio           : 4:3
Original display aspect ratio  : 4:3
Frame rate mode                : Constant
Frame rate                     : 25.000 fps
Standard                       : PAL
Color space                    : YUV
Chroma subsampling             : 4:2:0
Bit depth                      : 8 bits
Scan type                      : MBAFF
Scan order                     : Top Field First
Bits/(Pixel*Frame)             : 0.203
Stream size                    : 689 MiB (87%)
Default                        : Yes
Forced                         : No
Color primaries                : BT.601 PAL
Transfer characteristics       : BT.470 System B, BT.470 System G
Matrix coefficients            : BT.601
Color range                    : Limited
Audio
ID                             : 2
Format                         : MPEG Audio
Format version                 : Version 1
Format profile                 : Layer 2
Codec ID                       : A_MPEG/L2
Codec ID/Hint                  : MP2
Duration                       : 45mn 42s
Bit rate mode                  : Constant
Bit rate                       : 256 Kbps
Channel(s)                     : 2 channels
Sampling rate                  : 48.0 KHz
Compression mode               : Lossy
Stream size                    : 83.7 MiB (11%)
Language                       : Russian
Default                        : Yes
Forced                         : No




   Похожие торренты   Торрент   Размер 
В этой теме нет новых непрочитанных сообщений. Спектакль - Чудаки (2007) DVB от AND03AND

15 | 22

3.4 ГБ

В этой теме нет новых непрочитанных сообщений. Спектакль - Чайка (1999) DVB от AND03AND

13 | 33

3.4 ГБ

В этой теме нет новых непрочитанных сообщений. Спектакль - Тартюф (2008) DVB-AVC от AND03AND

19 | 10

1.53 ГБ

В этой теме нет новых непрочитанных сообщений. Спектакль - Всё в саду (1992) DVB от AND03AND

45 | 12

2.98 ГБ

В этой теме нет новых непрочитанных сообщений. Спектакль - Анна Снегина (2014) DVB от AND03AND

14 | 15

1.5 ГБ

В этой теме нет новых непрочитанных сообщений. Спектакль - Валентинов день (2007) DVB от AND03AND

4 | 9

3.45 ГБ

В этой теме нет новых непрочитанных сообщений. Спектакль - У Синей бухты (1976) DVB от AND03AND

11 | 5

932.62 МБ




Вы не можете начинать темы
Вы не можете отвечать на сообщения
Вы не можете редактировать свои сообщения
Вы не можете удалять свои сообщения
Вы не можете добавлять вложения

Перейти:  
Для Мосгорсуда, Роскомнадзора и рекламодателей: mosgorsud-torrent[собачка]yandex.ru
 Вход
ppkBB3cker v.2 © 2008-2014 @ PPK
[ Time : 0.047s | 15 Queries | GZIP : Off ]

Торрент трекер RUTOR.IN, Не можете зайти на rutor.org? Какой новый адрес рутор? Какое зеркало рутор? Не работает rutor.org и зеркала? Тогда наш торрент специально для вас. Rutor.in неофициальное зеркало rutor. В случае если у Вас заблокирован rutor или вдруг Вы не можете на него зайти, то Вы без труда сможете скачать бесплатно и без рекламы последние новинки кино, игр, сериалов и прочего у нас, на Rutor.in. Не нужно использовать прокси, чтобы зайти на рутор, достаточно воспользоваться нашим ресурсом. Все новые фильмы, игры, сериалы, книги и музыка за 2013 и 2014 годы через торрент бесплатно. Скачивайте фильмы в хорошем качестве, игры для пк, xbox, playstation без регистрации. У нас вы найдете новые Зарубежные сериалы и Русские сериалы 2013, 2014, 2015 годов. Оставайтесь с нами, качайте любимые фильмы, игры, сериалы, книги и музыку.