img image001 image001 image001 image001 image001 image001 image001 image001 image001 image001 image001 image001 image001 image001 image001

Planets Sun Sun Sun
Статистика раздачи
Автор: Nickolas3434 | Размер: 1.87 ГБ | Добавлен: 13 янв 2015
Раздают: 215    Качают: 15
Скачать торрент
Скачать торрент
Описание торрента

СообщениеДобавлено: 13 янв 2015 

Информация о фильме
Название: Спектакль - Банкрот / Свои люди – сочтемся
Год выхода: 2008
Жанр: Комедия
Режиссер: Народный артист Республики Северная Осетия-Алания Модест Абрамов
В ролях:
Большов Самсон Силыч, купец - засл. артист Республики Беларусь Александр Шаров
Аграфена Кондратьевна, его жена - Анна Лаухина
Липочка, их дочь - Наталья Дуванова
Подхалюзин, приказчик - Константин Михаленко
Устинья Наумовна, сваха - Наталья Онищенко
Рисположенский Сысой Псоич, стряпчий - засл. артист Республики Беларусь Сергей Журавель
Фоминишна, ключница - Елена Христич
Тишка, мальчик - Денис Моисейчик
Приказчики - Денис Моисейчик, Юрий Баранов, Сергей Пукита, Илья Черепко-Самохвалов
О фильме:
«Банкрот» А. Островского.
Одна из первых пьес гениального драматурга, написанная смешно, с азартом молодости.
Она и сегодня в интерпретации театра необычайно современна. А весёлые русские песни и танцы как нельзя лучше подчёркивают задорную атмосферу спектакля. Поднимая серьёзные проблемы отношений между отцами и детьми, между человеком и капиталом, авторы постановки умело обыгрывают каждый эпизод, а талантливые актёры создают неповторимую палитру образов. Кроме того, неожиданное переплетение комедийных и драматических линий не даст поводов для скуки.
Доп. информация:
Художник-постановщик - Л. Рулёва
Музыкальное оформление - Л. Маслаковой
Балетмейстер - Л. Фадеева
Премьера - 2005 г.

Благодарность:
Исходник для данной раздачи, записан с цифрового наземного канала, т.е. DVB-Т, любезно предоставлен PavelDAS
За что ему большое спасибо!
Помощь с описанием: Bartimeyse
Запись потока *.ts с наземного цифрового телеканала "Беларусь 3", ремукс в *.mkv программой VideoReDo.

Страна: Республика Беларусь
Студия: Белорусский государственный молодежный театр, Минск
Продолжительность: 2-а действия 01:07:27 + 00:43:30
Перевод: Не требуется
Язык: Русский
Файл
Кодек: AVC (H264)
Качество: DVB
Формат видео: MKV
Видео 1: AVC (H264), 720x576@785x576 (4:3), анаморф, 25 fps, 2 109 Kbps
Видео 2: AVC (H264), 720x576@785x576 (4:3), анаморф, 25 fps, 2 107 Kbps
Звук: MP2, 256 kbps, 2 channels, 48 kHz
Семпл
Код:
General
Unique ID                      : 264248101516234517304433151123666879051 (0xC6CC55490A5D825659DFA62C5619C24B)
Complete name                  : D:ТеатрБанкрот (2008) (БТфМ)Банкрот (2008)Банкрот_01_2008.mkv
Format                         : Matroska
Format version                 : Version 2
File size                      : 1.14 GiB
Duration                       : 1h 7mn
Overall bit rate               : 2 413 Kbps
Writing application            : Lavf52.64.2
Writing library                : Lavf52.64.2
Video
ID                             : 1
Format                         : AVC
Format/Info                    : Advanced Video Codec
Format profile                 : Main@L3.0
Format settings, CABAC         : Yes
Format settings, ReFrames      : 4 frames
Format settings, GOP           : M=4, N=24
Codec ID                       : V_MPEG4/ISO/AVC
Duration                       : 1h 7mn
Bit rate                       : 2 109 Kbps
Width                          : 720 pixels
Height                         : 576 pixels
Display aspect ratio           : 4:3
Original display aspect ratio  : 4:3
Frame rate mode                : Constant
Frame rate                     : 25.000 fps
Standard                       : PAL
Color space                    : YUV
Chroma subsampling             : 4:2:0
Bit depth                      : 8 bits
Scan type                      : MBAFF
Scan order                     : Top Field First
Bits/(Pixel*Frame)             : 0.203
Stream size                    : 1 017 MiB (87%)
Default                        : Yes
Forced                         : No
Color primaries                : BT.601 PAL
Transfer characteristics       : BT.470 System B, BT.470 System G
Matrix coefficients            : BT.601
Color range                    : Limited
Audio
ID                             : 2
Format                         : MPEG Audio
Format version                 : Version 1
Format profile                 : Layer 2
Codec ID                       : A_MPEG/L2
Codec ID/Hint                  : MP2
Duration                       : 1h 7mn
Bit rate mode                  : Constant
Bit rate                       : 256 Kbps
Channel(s)                     : 2 channels
Sampling rate                  : 48.0 KHz
Compression mode               : Lossy
Stream size                    : 123 MiB (11%)
Language                       : Russian
Default                        : Yes
Forced                         : No


Код:
General
Unique ID                      : 268288168099414065869699274503855279405 (0xC9D66BF25A12FC535D33B31BA5DC0D2D)
Complete name                  : D:ТеатрБанкрот (2008) (БТфМ)Банкрот (2008)Банкрот_02_2008.mkv
Format                         : Matroska
Format version                 : Version 2
File size                      : 750 MiB
Duration                       : 43mn 29s
Overall bit rate               : 2 411 Kbps
Writing application            : Lavf52.64.2
Writing library                : Lavf52.64.2
Video
ID                             : 1
Format                         : AVC
Format/Info                    : Advanced Video Codec
Format profile                 : Main@L3.0
Format settings, CABAC         : Yes
Format settings, ReFrames      : 4 frames
Format settings, GOP           : M=4, N=24
Codec ID                       : V_MPEG4/ISO/AVC
Duration                       : 43mn 29s
Bit rate                       : 2 107 Kbps
Width                          : 720 pixels
Height                         : 576 pixels
Display aspect ratio           : 4:3
Original display aspect ratio  : 4:3
Frame rate mode                : Constant
Frame rate                     : 25.000 fps
Standard                       : PAL
Color space                    : YUV
Chroma subsampling             : 4:2:0
Bit depth                      : 8 bits
Scan type                      : MBAFF
Scan order                     : Top Field First
Bits/(Pixel*Frame)             : 0.203
Stream size                    : 656 MiB (87%)
Default                        : Yes
Forced                         : No
Color primaries                : BT.601 PAL
Transfer characteristics       : BT.470 System B, BT.470 System G
Matrix coefficients            : BT.601
Color range                    : Limited
Audio
ID                             : 2
Format                         : MPEG Audio
Format version                 : Version 1
Format profile                 : Layer 2
Codec ID                       : A_MPEG/L2
Codec ID/Hint                  : MP2
Duration                       : 43mn 29s
Bit rate mode                  : Constant
Bit rate                       : 256 Kbps
Channel(s)                     : 2 channels
Sampling rate                  : 48.0 KHz
Compression mode               : Lossy
Stream size                    : 79.6 MiB (11%)
Language                       : Russian
Default                        : Yes
Forced                         : No




   Похожие торренты   Торрент   Размер 
В этой теме нет новых непрочитанных сообщений. Спектакль - Тартюф (2008) DVB-AVC от AND03AND

19 | 10

1.53 ГБ

В этой теме нет новых непрочитанных сообщений. Спектакль - Имел бы я златые горы... (2008) DVB от AND03AND

45 | 8

2.11 ГБ

В этой теме нет новых непрочитанных сообщений. Спектакль - Чудаки (2007) DVB от AND03AND

23 | 23

3.4 ГБ

В этой теме нет новых непрочитанных сообщений. Спектакль - Всё в саду (1992) DVB от AND03AND

56 | 14

2.98 ГБ

В этой теме нет новых непрочитанных сообщений. Спектакль - Чайка (1999) DVB от AND03AND

19 | 34

3.4 ГБ

В этой теме нет новых непрочитанных сообщений. Спектакль - Бабье царство (1987) DVB от AND03AND

20 | 3

2.36 ГБ

В этой теме нет новых непрочитанных сообщений. Спектакль - Пока я жив, я с тобой (1986) DVB от AND03AND

8 | 2

732.77 МБ




Вы не можете начинать темы
Вы не можете отвечать на сообщения
Вы не можете редактировать свои сообщения
Вы не можете удалять свои сообщения
Вы не можете добавлять вложения

Перейти:  
Для Мосгорсуда, Роскомнадзора и рекламодателей: mosgorsud-torrent[собачка]yandex.ru
 Вход
ppkBB3cker v.2 © 2008-2014 @ PPK
[ Time : 0.039s | 15 Queries | GZIP : Off ]

Торрент трекер RUTOR.IN, Не можете зайти на rutor.org? Какой новый адрес рутор? Какое зеркало рутор? Не работает rutor.org и зеркала? Тогда наш торрент специально для вас. Rutor.in неофициальное зеркало rutor. В случае если у Вас заблокирован rutor или вдруг Вы не можете на него зайти, то Вы без труда сможете скачать бесплатно и без рекламы последние новинки кино, игр, сериалов и прочего у нас, на Rutor.in. Не нужно использовать прокси, чтобы зайти на рутор, достаточно воспользоваться нашим ресурсом. Все новые фильмы, игры, сериалы, книги и музыка за 2013 и 2014 годы через торрент бесплатно. Скачивайте фильмы в хорошем качестве, игры для пк, xbox, playstation без регистрации. У нас вы найдете новые Зарубежные сериалы и Русские сериалы 2013, 2014, 2015 годов. Оставайтесь с нами, качайте любимые фильмы, игры, сериалы, книги и музыку.