img image001 image001 image001 image001 image001 image001 image001 image001 image001 image001 image001 image001 image001 image001 image001

Planets Sun Sun Sun
Статистика раздачи
Автор: Nickolas3434 | Размер: 4.34 ГБ | Добавлен: 13 янв 2015
Раздают: 38    Качают: 8
Скачать торрент
Скачать торрент
Описание торрента

СообщениеДобавлено: 13 янв 2015 

Информация о фильме
Оригинальное название: Англия в общем и в частности
Год выхода: 2015
Жанр: Документальный, история
Режиссер: Валерий Спирин
В ролях: Владимир Познер, Иван Ургант
О фильме:
Англия - страна туманная и таинственная, недаром ее называли "коварным Альбионом". Владимир Познер и Иван Ургант решили разобраться в том, что есть Англия на самом деле, и кто такие англичане.Для начала они отправятся в Лондон - город, который по праву считается сосредоточием всего английского.Знающие люди подсказали путешественникам, что нет лучшего способа по-настоящему узнать город, понять его характер, чем взять кэб. Лондонский кэб - вещь легендарная и знаковая. Как и сами кэбмены. Главное их достоинство - идеальное знание города. Коренной лондонец кэбмэн Тони Хайзер, с которым Владимир Владимирович и Иван проведут целый день, познакомит их со своим Лондоном. Кроме того, зрители узнают о том, как долго надо учиться, чтобы получить лицензию кэбмена, с чем связано исчезновение знаменитого лондонского смога, на чем ездит на работу мэр Лондона Борис Джонсон, почему лондонское метро называют тьюб, что Биг Бен - это вовсе не знаменитая башня с часами, откуда в Англию пришла традиция пикников, что такое паб-кролл, кто был прообразом Шерлока Хомса и многое другое.

01. Нетуманный Альбион
02. Символ нации
03. Люди и англичане
04. Джентльмены и бульдоги
05. Искусство пожимать руки
06. Над ней не Заходило Солнце
07. Улыбка Англичанина
08. Британское Вторжение
09. Весь Мир - Театр
10. Что есть Английскость

Страна: Россия
Студия: Первый канал
Продолжительность: 5 х ~ 00:50:00
Перевод: Не требуется
Файл
Качество: HDTVRip (AVC)
Видео: MPEG-4 AVC, ~ 2100 Кбит/с, 1024х576
Аудио: АС3, 2 ch, 384 Кбит/с
General
Unique ID : 197880230355726505142558037326256688221 (0x94DE589A4CD81269AEBEC77AAC084C5D)
Complete name : C:Angliya.v.obshem.i.v.chastnosti.2015.HDTVRip.AVC.ExKinoRayAngliya.v.obshem.i.v.chastnosti.01.2015.HDTVRip.AVC.ExKinoRay.mkv
Format : Matroska
Format version : Version 4 / Version 2
File size : 884 MiB
Duration : 48mn 37s
Overall bit rate : 2 540 Kbps
Movie name : Angliya v obshem i v chastnosti s1 2015 from ExKinoRay
Encoded date : UTC 2015-01-11 21:19:52
Writing application : mkvmerge v6.6.0 ('The Edge Of The In Between') built on Dec 1 2013 17:55:00
Writing library : libebml v1.3.0 + libmatroska v1.4.1
Video
ID : 1
Format : AVC
Format/Info : Advanced Video Codec
Format profile : High@L4.1
Format settings, CABAC : Yes
Format settings, ReFrames : 10 frames
Codec ID : V_MPEG4/ISO/AVC
Duration : 48mn 37s
Bit rate : 2 155 Kbps
Width : 1 024 pixels
Height : 576 pixels
Display aspect ratio : 16:9
Frame rate mode : Constant
Frame rate : 25.000 fps
Color space : YUV
Chroma subsampling : 4:2:0
Bit depth : 8 bits
Scan type : Progressive
Bits/(Pixel*Frame) : 0.146
Stream size : 732 MiB (83%)
Title : Enigma
Writing library : x264 core 133 r2334 a3ac64b
Encoding settings : cabac=1 / ref=10 / deblock=1:-2:-2 / analyse=0x3:0x113 / me=umh / subme=10 / psy=1 / psy_rd=1.05:0.20 / mixed_ref=1 / me_range=32 / chroma_me=1 / trellis=2 / 8x8dct=1 / cqm=0 / deadzone=21,11 / fast_pskip=0 / chroma_qp_offset=-3 / threads=12 / lookahead_threads=2 / sliced_threads=0 / nr=0 / decimate=0 / interlaced=0 / bluray_compat=0 / constrained_intra=0 / bframes=7 / b_pyramid=2 / b_adapt=2 / b_bias=0 / direct=3 / weightb=1 / open_gop=0 / weightp=2 / keyint=250 / keyint_min=25 / scenecut=40 / intra_refresh=0 / rc=2pass / mbtree=0 / bitrate=2155 / ratetol=1.0 / qcomp=0.60 / qpmin=0 / qpmax=51 / qpstep=4 / cplxblur=20.0 / qblur=0.5 / ip_ratio=1.40 / pb_ratio=1.30 / aq=1:1.00
Default : Yes
Forced : No
Color primaries : BT.709
Transfer characteristics : BT.709
Matrix coefficients : BT.709
Audio
ID : 2
Format : AC-3
Format/Info : Audio Coding 3
Mode extension : CM (complete main)
Format settings, Endianness : Big
Codec ID : A_AC3
Duration : 48mn 37s
Bit rate mode : Constant
Bit rate : 384 Kbps
Channel(s) : 6 channels
Channel positions : Front: L C R, Side: L R, LFE
Sampling rate : 48.0 KHz
Bit depth : 16 bits
Compression mode : Lossy
Stream size : 134 MiB (15%)
Language : Russian
Default : Yes
Forced : No



Релиз от:
Автор релиза:



   Похожие торренты   Торрент   Размер 
В этой теме нет новых непрочитанных сообщений. Англия в общем и в частности [01-05 из 10] (2015) HDTVRip-AVC от ExKinoRay

183 | 120

8.48 ГБ

В этой теме нет новых непрочитанных сообщений. Англия в общем и в частности [01-06 из 10] (2015) HDTVRip

154 | 38

4.15 ГБ

В этой теме нет новых непрочитанных сообщений. Англия в общем и в частности [01-08 из 10] (2015) HDTVRip

159 | 126

5.48 ГБ

В этой теме нет новых непрочитанных сообщений. Англия в общем и в частности [01-07 из 10] (2015) HDTVRip

126 | 34

4.73 ГБ

В этой теме нет новых непрочитанных сообщений. Англия в общем и в частности [01-02 из 10] (2015) HDTVRip

89 | 7

1.44 ГБ

В этой теме нет новых непрочитанных сообщений. Англия в общем и в частности [01-05 из 10] (2015) HDTVRip

57 | 64

3.39 ГБ

В этой теме нет новых непрочитанных сообщений. Англия в общем и в частности [01-03 из 10] (2015) HDTVRip

153 | 34

2.17 ГБ




Вы не можете начинать темы
Вы не можете отвечать на сообщения
Вы не можете редактировать свои сообщения
Вы не можете удалять свои сообщения
Вы не можете добавлять вложения

Перейти:  
Для Мосгорсуда, Роскомнадзора и рекламодателей: mosgorsud-torrent[собачка]yandex.ru
 Вход
ppkBB3cker v.2 © 2008-2014 @ PPK
[ Time : 0.047s | 15 Queries | GZIP : Off ]

Торрент трекер RUTOR.IN, Не можете зайти на rutor.org? Какой новый адрес рутор? Какое зеркало рутор? Не работает rutor.org и зеркала? Тогда наш торрент специально для вас. Rutor.in неофициальное зеркало rutor. В случае если у Вас заблокирован rutor или вдруг Вы не можете на него зайти, то Вы без труда сможете скачать бесплатно и без рекламы последние новинки кино, игр, сериалов и прочего у нас, на Rutor.in. Не нужно использовать прокси, чтобы зайти на рутор, достаточно воспользоваться нашим ресурсом. Все новые фильмы, игры, сериалы, книги и музыка за 2013 и 2014 годы через торрент бесплатно. Скачивайте фильмы в хорошем качестве, игры для пк, xbox, playstation без регистрации. У нас вы найдете новые Зарубежные сериалы и Русские сериалы 2013, 2014, 2015 годов. Оставайтесь с нами, качайте любимые фильмы, игры, сериалы, книги и музыку.