img image001 image001 image001 image001 image001 image001 image001 image001 image001 image001 image001 image001 image001 image001 image001

Planets Sun Sun Sun
Статистика раздачи
Автор: Nickolas3434 | Размер: 1.53 ГБ | Добавлен: 16 янв 2015
Раздают: 19    Качают: 10
Скачать торрент
Скачать торрент
Описание торрента

СообщениеДобавлено: 16 янв 2015 

Информация о фильме
Название: Спектакль - Тартюф
Год выхода: 2008
Жанр: Комедия
Режиссер: Народный артист Республики Северная Осетия-Алания Модест Абрамов
В ролях:
Тартюф - Народный артист Республики Беларусь Сергей Журавель
Оргон - Заслуженный артист Республики Беларусь Александр Шаров
Госпожа Пернель - Раиса Сидорчик
Эльмира - Лилия Арамилева
Дамис - Василий Новик
Марианна - Наталья Дуванова
Валер - Юрий Баранов
Клеант - Евгений Ивкович
Дорина - Анна Лаухина
Лоран (слуга Тартюфа) - Илья Черепко-Самохвалов
Господин Лояль - Иван Щетко
Офицер - Игорь Злотников
О фильме:
«Тартюф» Жан-Батист Мольер.
Человек зашёл в церковь помолиться, а вышел с новым другом, готовым на всё: распорядиться его деньгами, жениться на его молодой дочери, принять в подарок имение и даже забраться в супружескую постель своего благодетеля. Тартюф есть Тартюф!
Но возможно ли, чтобы такому плуту всё сошло с рук и неужели на него нельзя найти управы?! Эта интригующая история, написанная знаменитым комедиографом ещё во времена классицизма, перешагнула далеко за его рамки. И сегодня, рассказывая со сцены о проказах Тартюфа в талантливейшем исполнении Народного артиста Беларуси Сергея Журавля, мы предлагаем современное прочтение известной пьесы.
Доп. информация:
Художник-постановщик - А. Костюченко
Художник по костюмам - Н. Гурло
Премьера - 2007 г.

Благодарность:
Исходник для данной раздачи, записан с цифрового наземного канала, т.е. DVB-Т, любезно предоставлен PavelDAS
За что ему большое спасибо!
Помощь с описанием: Bartimeyse
Запись потока *.ts с наземного цифрового телеканала "Беларусь 3", ремукс в *.mkv программой VideoReDo.

Страна: Республика Беларусь
Студия: Белорусский государственный молодежный театр, Минск
Продолжительность: 2-а действия 01:30:50
Перевод: Не требуется
Язык: Русский
Файл
Кодек: AVC (H264)
Качество: DVB
Формат видео: MKV
Видео: AVC (H264), 720x576@785x576 (4:3), анаморф, 25 fps, 2 109 Kbps
Звук: MP2, 256 kbps, 2 channels, 48 kHz
Семпл
Код:
General
Unique ID                   : 177241668513444974593168427501614803808 (0x855780F10FF817968719A0D0838C2B60)
Complete name               : D:ТеатрТартюф (2008) (БТфМ)Тартюф (2008).mkv
Format                      : Matroska
Format version              : Version 2
File size                   : 1.53 GiB
Duration                    : 1h 30mn
Overall bit rate            : 2 413 Kbps
Writing application         : Lavf52.64.2
Writing library             : Lavf52.64.2
Video
ID                          : 1
Format                      : AVC
Format/Info                 : Advanced Video Codec
Format profile              : Main@L3.0
Format settings, CABAC      : Yes
Format settings, ReFrames   : 4 frames
Format settings, GOP        : M=4, N=24
Codec ID                    : V_MPEG4/ISO/AVC
Duration                    : 1h 30mn
Bit rate                    : 2 109 Kbps
Width                       : 720 pixels
Height                      : 576 pixels
Display aspect ratio        : 4:3
Original display aspect rat : 4:3
Frame rate mode             : Constant
Frame rate                  : 25.000 fps
Standard                    : PAL
Color space                 : YUV
Chroma subsampling          : 4:2:0
Bit depth                   : 8 bits
Scan type                   : MBAFF
Scan order                  : Top Field First
Bits/(Pixel*Frame)          : 0.203
Stream size                 : 1.34 GiB (87%)
Default                     : Yes
Forced                      : No
Color primaries             : BT.601 PAL
Transfer characteristics    : BT.470 System B, BT.470 System G
Matrix coefficients         : BT.601
Color range                 : Limited
Audio
ID                          : 2
Format                      : MPEG Audio
Format version              : Version 1
Format profile              : Layer 2
Codec ID                    : A_MPEG/L2
Codec ID/Hint               : MP2
Duration                    : 1h 30mn
Bit rate mode               : Constant
Bit rate                    : 256 Kbps
Channel(s)                  : 2 channels
Sampling rate               : 48.0 KHz
Compression mode            : Lossy
Stream size                 : 166 MiB (11%)
Language                    : det
Default                     : Yes
Forced                      : No





   Похожие торренты   Торрент   Размер 
В этой теме нет новых непрочитанных сообщений. Спектакль - Имел бы я златые горы... (2008) DVB от AND03AND

45 | 8

2.11 ГБ

В этой теме нет новых непрочитанных сообщений. Спектакль - Банкрот / Свои люди – сочтемся (2008) DVB-AVC от AND03AND

215 | 15

1.87 ГБ

В этой теме нет новых непрочитанных сообщений. Спектакль - Всё в саду (1992) DVB от AND03AND

56 | 14

2.98 ГБ

В этой теме нет новых непрочитанных сообщений. Спектакль - Чудаки (2007) DVB от AND03AND

23 | 23

3.4 ГБ

В этой теме нет новых непрочитанных сообщений. Спектакль - Чайка (1999) DVB от AND03AND

19 | 34

3.4 ГБ

В этой теме нет новых непрочитанных сообщений. Спектакль - Пока я жив, я с тобой (1986) DVB от AND03AND

8 | 2

732.77 МБ

В этой теме нет новых непрочитанных сообщений. Спектакль - Валентинов день (2007) DVB от AND03AND

6 | 11

3.45 ГБ




Вы не можете начинать темы
Вы не можете отвечать на сообщения
Вы не можете редактировать свои сообщения
Вы не можете удалять свои сообщения
Вы не можете добавлять вложения

Перейти:  
Для Мосгорсуда, Роскомнадзора и рекламодателей: mosgorsud-torrent[собачка]yandex.ru
 Вход
ppkBB3cker v.2 © 2008-2014 @ PPK
[ Time : 0.027s | 15 Queries | GZIP : Off ]

Торрент трекер RUTOR.IN, Не можете зайти на rutor.org? Какой новый адрес рутор? Какое зеркало рутор? Не работает rutor.org и зеркала? Тогда наш торрент специально для вас. Rutor.in неофициальное зеркало rutor. В случае если у Вас заблокирован rutor или вдруг Вы не можете на него зайти, то Вы без труда сможете скачать бесплатно и без рекламы последние новинки кино, игр, сериалов и прочего у нас, на Rutor.in. Не нужно использовать прокси, чтобы зайти на рутор, достаточно воспользоваться нашим ресурсом. Все новые фильмы, игры, сериалы, книги и музыка за 2013 и 2014 годы через торрент бесплатно. Скачивайте фильмы в хорошем качестве, игры для пк, xbox, playstation без регистрации. У нас вы найдете новые Зарубежные сериалы и Русские сериалы 2013, 2014, 2015 годов. Оставайтесь с нами, качайте любимые фильмы, игры, сериалы, книги и музыку.