img image001 image001 image001 image001 image001 image001 image001 image001 image001 image001 image001 image001 image001 image001 image001

Planets Sun Sun Sun
Статистика раздачи
Автор: Nickolas3434 | Размер: 2.42 ГБ | Добавлен: 16 янв 2015
Раздают: 23    Качают: 6
Скачать торрент
Скачать торрент
Описание торрента

СообщениеДобавлено: 16 янв 2015 

Информация о фильме
Название: Спектакль - Срочно требуется... Самоубийца
Год выхода: 2007
Жанр: Трагикомедия
Режиссер: Борис Луценко
В ролях:
Подсекальников – Алексей Шедько
Мария Лукьяновна, жена Подсекальникова – Эмилия Пранскуте
Серафима Ильинична, теща Подсекальникова – Лина Цветкова
Калабушкин, сосед Подсекальникова – заслуженный артист Российской Федерации Александр Брухацкий
Маргарита Пересветова, любовница Калабушкина – Елена Пастревич
Аристарх Гранд-Скубик, представитель интеллигенции – заслуженный артист Российской Федерации – Олег Корчиков
Клеопатра Максимовна, представительница за духовную любовь – Татьяна Бовкалова
Раиса Филипповна, представительница за плотскую любовь – Татьяна Гаркуша
Егор Тимофеевич, курьер – Виктор Гудинович
Пугачёв, мясник, представитель торговли – Иван Мацкевич
Писатель – заслуженный артист Республики Беларусь Андрей Душечкин
Господин Елпидий – Вячеслав Солодилов
Старушка – заслуженная артистка Республики Беларусь Олимпиада Шах-Парон
Вторая старушка – заслуженная артистка Республики Беларусь Зоя Осмоловская, Наталья Чемодурова
Портниха – заслуженная артистка Республики Беларусь Людмила Былинская
Олег Леонидович – Сергей Чекерес
Клоун-мим – Виталий Быков
Санитары: Павел Вишняков, Виталий Кравченко, Иван Трус, Алексей Сенчило
О фильме:
Много неприятных сюрпризов преподносит порой жизнь: нет работы, нет денег, жена больше не привлекает вас своей красотой, а тёщу вы просто видеть не можете… И еще: бывает, что ночью так хочется ливерной колбасы, которой, к сожалению, нет. Что делать, если жизнь загнала в тупик? Главный герой спектакля – Подсекальников – приходит к выводу: «Застрелиться!» Новоиспечённому суициденту помогут «добрые люди». Зачем же умирать просто так? Всегда найдётся повод умереть ради чего-то или кого-то… А может быть ДЛЯ кого-то… Но что там, за порогом жизни?
Пьеса Николая Эрдмана "Самоубийца" была запрещена в СССР.
В мае 1932 года Мейерхольд начал репетировать "Самоубийцу", в декабре 1931 года за постановку брался Станиславский во МХАТе, но все разбилось о слова, произнесенные в самом главном кремлевском кабинете: "Она пустовата и вредна!" Николай Эрдман был арестован во время съемок фильма "Веселые ребята" в 1933 году. Вскоре была запрещена его пьеса "Мандат", поставленная Мейерхольдом в его театре в 1925 году и прошедшая более 350 раз. Имя Эрдмана было вычеркнуто из титров фильмов, а сам драматург отправился по этапу в Красноярский край, в Енисейск.
В 1982 году режиссер Валентин Плучек все же поставил ее в Театре сатиры.

Исходник для данной раздачи, записан с цифрового наземного канала, т.е. DVB-Т, любезно предоставлен PavelDAS
За что ему большое спасибо!
Помощь с описанием: Bartimeyse
Запись потока *.ts с наземного цифрового телеканала "Беларусь 3", ремукс в *.mkv программой VideoReDo.

Страна: Республика Беларусь
Студия: Национальный академический драматический театр им. Максима Горького, Минск
Продолжительность: 2-а действия 01:22:02 + 01:01:59
Перевод: Перевод: Не требуется
Язык: Русский
Файл
Кодек: AVC (H264)
Качество: SATRip
Видео 1: AVC (H264), 720x576 (4:3), 25 fps, 2 103 Kbps
Видео 2: AVC (H264), 720x576 (4:3), 25 fps, 2 105 Kbps
Звук: MP2, 256 kbps, 2 channels, 48 kHz
Семпл
Код:
General
Unique ID                      : 157526410656310593839271537644015650149 (0x76827BAE813EC885B40A6888AE0F0565)
Complete name                  : D:ТеатрСрочно требуется... Самоубийца (2007) (БТфМ)Срочно требуется... Самоубийца (2007)Срочно требуется... Самоубийца_01_2007.mkv
Format                         : Matroska
Format version                 : Version 2
File size                      : 1.38 GiB
Duration                       : 1h 22mn
Overall bit rate               : 2 407 Kbps
Writing application            : Lavf52.64.2
Writing library                : Lavf52.64.2
Video
ID                             : 1
Format                         : AVC
Format/Info                    : Advanced Video Codec
Format profile                 : Main@L3.0
Format settings, CABAC         : Yes
Format settings, ReFrames      : 4 frames
Format settings, GOP           : M=4, N=24
Codec ID                       : V_MPEG4/ISO/AVC
Duration                       : 1h 22mn
Bit rate                       : 2 103 Kbps
Width                          : 720 pixels
Height                         : 576 pixels
Display aspect ratio           : 4:3
Original display aspect ratio  : 4:3
Frame rate mode                : Constant
Frame rate                     : 25.000 fps
Standard                       : PAL
Color space                    : YUV
Chroma subsampling             : 4:2:0
Bit depth                      : 8 bits
Scan type                      : MBAFF
Scan order                     : Top Field First
Bits/(Pixel*Frame)             : 0.203
Stream size                    : 1.21 GiB (87%)
Default                        : Yes
Forced                         : No
Color primaries                : BT.601 PAL
Transfer characteristics       : BT.470 System B, BT.470 System G
Matrix coefficients            : BT.601
Color range                    : Limited
Audio
ID                             : 2
Format                         : MPEG Audio
Format version                 : Version 1
Format profile                 : Layer 2
Codec ID                       : A_MPEG/L2
Codec ID/Hint                  : MP2
Duration                       : 1h 22mn
Bit rate mode                  : Constant
Bit rate                       : 256 Kbps
Channel(s)                     : 2 channels
Sampling rate                  : 48.0 KHz
Compression mode               : Lossy
Stream size                    : 150 MiB (11%)
Language                       : det
Default                        : Yes
Forced                         : No


Код:
General
Unique ID                      : 242083492171401295370550182558064705227 (0xB61F95AC5FD3CD9EADECBB43C0F7FECB)
Complete name                  : D:Новая  земля 2ТеатрСрочно требуется... Самоубийца (2007) (БТфМ)Срочно требуется... Самоубийца (2007)Срочно требуется... Самоубийца_02_2007.mkv
Format                         : Matroska
Format version                 : Version 2
File size                      : 1.04 GiB
Duration                       : 1h 1mn
Overall bit rate               : 2 409 Kbps
Writing application            : Lavf52.64.2
Writing library                : Lavf52.64.2
Video
ID                             : 1
Format                         : AVC
Format/Info                    : Advanced Video Codec
Format profile                 : Main@L3.0
Format settings, CABAC         : Yes
Format settings, ReFrames      : 4 frames
Format settings, GOP           : M=4, N=24
Codec ID                       : V_MPEG4/ISO/AVC
Duration                       : 1h 1mn
Bit rate                       : 2 105 Kbps
Width                          : 720 pixels
Height                         : 576 pixels
Display aspect ratio           : 4:3
Original display aspect ratio  : 4:3
Frame rate mode                : Constant
Frame rate                     : 25.000 fps
Standard                       : PAL
Color space                    : YUV
Chroma subsampling             : 4:2:0
Bit depth                      : 8 bits
Scan type                      : MBAFF
Scan order                     : Top Field First
Bits/(Pixel*Frame)             : 0.203
Stream size                    : 933 MiB (87%)
Default                        : Yes
Forced                         : No
Color primaries                : BT.601 PAL
Transfer characteristics       : BT.470 System B, BT.470 System G
Matrix coefficients            : BT.601
Color range                    : Limited
Audio
ID                             : 2
Format                         : MPEG Audio
Format version                 : Version 1
Format profile                 : Layer 2
Codec ID                       : A_MPEG/L2
Codec ID/Hint                  : MP2
Duration                       : 1h 1mn
Bit rate mode                  : Constant
Bit rate                       : 256 Kbps
Channel(s)                     : 2 channels
Sampling rate                  : 48.0 KHz
Compression mode               : Lossy
Stream size                    : 114 MiB (11%)
Language                       : det
Default                        : Yes
Forced                         : No
 




   Похожие торренты   Торрент   Размер 
В этой теме нет новых непрочитанных сообщений. Срочно требуется Дед Мороз (2007) DVDRip

291 | 19

1.37 ГБ

В этой теме нет новых непрочитанных сообщений. Срочно требуется звезда / Life with Mikey (1993) BDRip AVC

222 | 43

2.1 ГБ

В этой теме нет новых непрочитанных сообщений. Срочно требуется звезда / Life with Mikey (1993) BDRip 1080p

8 | 2

8.07 ГБ

В этой теме нет новых непрочитанных сообщений. Срочно требуется звезда / Life with Mikey (1993) BDRip 720p

74 | 15

3.42 ГБ

В этой теме нет новых непрочитанных сообщений. Спектакль - Чудаки (2007) DVB от AND03AND

23 | 23

3.4 ГБ

В этой теме нет новых непрочитанных сообщений. Спектакль - Валентинов день (2007) DVB от AND03AND

6 | 11

3.45 ГБ

В этой теме нет новых непрочитанных сообщений. Спектакль - Извещение Марии (2007) DVB от AND03AND

32 | 12

3.71 ГБ




Вы не можете начинать темы
Вы не можете отвечать на сообщения
Вы не можете редактировать свои сообщения
Вы не можете удалять свои сообщения
Вы не можете добавлять вложения

Перейти:  
Для Мосгорсуда, Роскомнадзора и рекламодателей: mosgorsud-torrent[собачка]yandex.ru
 Вход
ppkBB3cker v.2 © 2008-2014 @ PPK
[ Time : 0.545s | 17 Queries | GZIP : Off ]

Торрент трекер RUTOR.IN, Не можете зайти на rutor.org? Какой новый адрес рутор? Какое зеркало рутор? Не работает rutor.org и зеркала? Тогда наш торрент специально для вас. Rutor.in неофициальное зеркало rutor. В случае если у Вас заблокирован rutor или вдруг Вы не можете на него зайти, то Вы без труда сможете скачать бесплатно и без рекламы последние новинки кино, игр, сериалов и прочего у нас, на Rutor.in. Не нужно использовать прокси, чтобы зайти на рутор, достаточно воспользоваться нашим ресурсом. Все новые фильмы, игры, сериалы, книги и музыка за 2013 и 2014 годы через торрент бесплатно. Скачивайте фильмы в хорошем качестве, игры для пк, xbox, playstation без регистрации. У нас вы найдете новые Зарубежные сериалы и Русские сериалы 2013, 2014, 2015 годов. Оставайтесь с нами, качайте любимые фильмы, игры, сериалы, книги и музыку.