img image001 image001 image001 image001 image001 image001 image001 image001 image001 image001 image001 image001 image001 image001 image001

Planets Sun Sun Sun
Статистика раздачи
Автор: Nickolas3434 | Размер: 3.91 ГБ | Добавлен: 18 янв 2015
Раздают: 9    Качают: 7
Скачать торрент
Скачать торрент
Описание торрента

СообщениеДобавлено: 18 янв 2015 

Информация о фильме
Оригинальное название: Максим Дунаевский. Жизнь по завещанию
Год выхода: 2015
Жанр: Документальный
Режиссер: Екатерина Кругликова
В ролях: Максим Дунаевский, Михаил Боярский, Александр Журбин, Дмитрий Харатьян, Александр Митта, Михаил Полубояринов, Надежда, Карякина,, Марк Розовский, Дмитрий Минченок , Ирина Апексимова
О фильме:
Максим Дунаевский не собирался становиться музыкантом. Но сразу после смерти отца, знаменитого советского композитора Исаака Дунаевского, десятилетний Максим резко меняет планы. В это время начинается судебная тяжба о разделе наследства между официальной и гражданской семьями Исаака Дунаевского. Преждевременную смерть композитора приблизила травля за увлечение западной музыкой, "не способной выразить чувства и мысли советских людей".Один из самых ярых его противников - Дмитрий Кабалевский - затем станет преподавателем Дунаевского-младшего в консерватории. Давний спор о "легкой музыке" продолжился, и чуть не закончится отчислением строптивого студента. Позже, когда молодой композитор Максим Дунаевский добьется популярности, пойдут слухи о том, что своим успехом молодой композитор обязан музыкальным архивам отца. Якобы в них остались невостребованные наработки, которые использовал в своем творчестве сын. Когда-то точно так же коллеги не верили и в творческую самодостаточность самого Исаака Осиповича Дунаевского. Жизнь, словно экспериментируя, ставила отца и сына в довольно схожие ситуации: и в творчестве, и в личной жизни..
Страна: Россия
Студия: Первый канал
Продолжительность: 00:50:00
Перевод: Не требуется
Файл
Кодек: H.264
Качество: HDTV 1080i
Видео: 1920х1080 (16:9), 25 fps, AVC MPEG-4 (x264), High@L4.0 ~ 10400 kbps avg, 0.201 bit/pixel
Звук: 48 kHz, MP2, 2 ch, 192 kbps avg
Общее
Идентификатор : 1 (0x1)
Полное имя : E:UsersМаксимкаDownloadsMaksim.Dunaevskij.Zhizn.po.zaveshhaniju.HDTV.1080i.[www.riper.am].ts
Формат : MPEG-TS
Размер файла : 3,91 Гбайт
Продолжительность : 50 м.
Режим общего битрейта : Переменный
Общий поток : 11,2 Мбит/сек
Видео
Идентификатор : 1603 (0x643)
Идентификатор меню : 1 (0x1)
Формат : AVC
Формат/Информация : Advanced Video Codec
Профиль формата : High@L4.0
Параметр CABAC формата : Да
Параметр ReFrames формата : 3 кадра
Идентификатор кодека : 27
Продолжительность : 50 м.
Битрейт : 10,4 Мбит/сек
Ширина : 1920 пикселей
Высота : 1080 пикселей
Соотношение сторон : 16:9
Частота кадров : 25,000 кадров/сек
Стандарт вещания : Component
Цветовое пространство : YUV
Субдискретизация насыщенности : 4:2:0
Битовая глубина : 8 бит
Тип развёртки : Чересстрочная
Порядок развёртки : Верхнее поле первое
Бит/(Пиксели*Кадры) : 0.201
Размер потока : 3,65 Гбайт (93%)
Основные цвета : BT.709
Характеристики трансфера : BT.709
Коэффициенты матрицы : BT.709
colour_range : Limited
Аудио
Идентификатор : 2603 (0xA2B)
Идентификатор меню : 1 (0x1)
Формат : MPEG Audio
Версия формата : Version 1
Профиль формата : Layer 2
Идентификатор кодека : 3
Продолжительность : 50 м.
Вид битрейта : Постоянный
Битрейт : 192 Кбит/сек
Каналы : 2 канала
Частота : 48,0 КГц
Метод сжатия : С потерями
Размер потока : 68,7 Мбайт (2%)
Язык : Russian


Релиз от:



   Похожие торренты   Торрент   Размер 
В этой теме нет новых непрочитанных сообщений. Максим Дунаевский. Жизнь по завещанию (2015) SATRip

61 | 4

715.93 МБ

В этой теме нет новых непрочитанных сообщений. Максим Дунаевский - Три мушкетера (1981) (1995) FLAC

1 | 5

517.04 МБ

В этой теме нет новых непрочитанных сообщений. OST. Максим Дунаевский - Д'Артаньян и Три Мушкетёра (2001) FLAC by гаврила

0 | 2

242.5 МБ

В этой теме нет новых непрочитанных сообщений. Брак по завещанию-3. Танцы на углях [01-09 из 09] (2013) HDTV 1080i от MediaClub

4 | 6

19.74 ГБ

В этой теме нет новых непрочитанных сообщений. Брак по завещанию-3. Танцы на углях [01-09 из 09] (2013) HDTV 1080i от Generalfilm

10 | 7

19.52 ГБ

В этой теме нет новых непрочитанных сообщений. Вспомним, друзья. Выпуск 2 / Золотой шлягер 2000 / Дунаевский плюс Дунаевский (Песни прошлого века) (2009) SATRip от AND03AND

141 | 36

738.86 МБ

В этой теме нет новых непрочитанных сообщений. Жизнь после жизни / Жизнь взаймы (2013) HDTV (1080i) от Files-x

15 | 4

4.8 ГБ




Вы не можете начинать темы
Вы не можете отвечать на сообщения
Вы не можете редактировать свои сообщения
Вы не можете удалять свои сообщения
Вы не можете добавлять вложения

Перейти:  
Для Мосгорсуда, Роскомнадзора и рекламодателей: mosgorsud-torrent[собачка]yandex.ru
 Вход
ppkBB3cker v.2 © 2008-2014 @ PPK
[ Time : 1.815s | 15 Queries | GZIP : On ]

Торрент трекер RUTOR.IN, Не можете зайти на rutor.org? Какой новый адрес рутор? Какое зеркало рутор? Не работает rutor.org и зеркала? Тогда наш торрент специально для вас. Rutor.in неофициальное зеркало rutor. В случае если у Вас заблокирован rutor или вдруг Вы не можете на него зайти, то Вы без труда сможете скачать бесплатно и без рекламы последние новинки кино, игр, сериалов и прочего у нас, на Rutor.in. Не нужно использовать прокси, чтобы зайти на рутор, достаточно воспользоваться нашим ресурсом. Все новые фильмы, игры, сериалы, книги и музыка за 2013 и 2014 годы через торрент бесплатно. Скачивайте фильмы в хорошем качестве, игры для пк, xbox, playstation без регистрации. У нас вы найдете новые Зарубежные сериалы и Русские сериалы 2013, 2014, 2015 годов. Оставайтесь с нами, качайте любимые фильмы, игры, сериалы, книги и музыку.