img image001 image001 image001 image001 image001 image001 image001 image001 image001 image001 image001 image001 image001 image001 image001

Planets Sun Sun Sun
Статистика раздачи
Автор: Nickolas3434 | Размер: 1.56 ГБ | Добавлен: 25 янв 2015, 20:01
Раздают: 177    Качают: 17
Скачать торрент
Скачать торрент
Описание торрента

СообщениеДобавлено: 25 янв 2015, 20:01 

Год выпуска: 2015
Страна: Россия
Телеканал: Первый Канал HD
Жанр: Документальный
Продолжительность: 0:50:57
Режиссеры: Людмила Снигирева и Юрий Однопозов

Описание: Обледеневшее лобовое стекло, сквозь которое не видно дороги. Реки, которые можно преодолеть только зимой. Лютый мороз и пронизывающий ветер. Все это – обычное дело для водителей, которые отправляются в путь по дороге Р504 "Колыма". Дальнобойщики здесь единственные, кто во время долгой сибирской зимы обеспечивает жителей Якутии и Чукотки самым необходимым.

Тип релиза: HDTV 720p
Контейнер: MKV
Видео: 1280x720 (16:9), 25,000 fps, H264, ~4000 kbps avg, ~0.176 bit/pixel
Аудио: 48 kHz, AC3 Dolby Digital, 3/2 (L,C,R,l,r) + LFE ch, ~384.00 kbps avg

General
Unique ID : 211799474365074417806495274733266872462 (0x9F5718512ADF8A089B40B0576811288E)
Complete name : E:uTorrent.TempTempPolus.Holoda.Voiny.Bezdorozhya.2015.HDTV.720p.x264-lrn.mkv
Format : Matroska
Format version : Version 4 / Version 2
File size : 1.56 GiB
Duration : 50mn 57s
Overall bit rate : 4 386 Kbps
Movie name : 'Voiny Bezdorozhya (2015)' by lrn © 2015
Encoded date : UTC 2010-02-22 21:41:31
Writing application : mkvmerge v5.9.0 ('On The Loose') built on Dec 9 2012 15:37:01
Writing library : libebml v1.3.0 + libmatroska v1.4.0
DURATION : 00:50:57.800000000
NUMBER_OF_FRAMES : 76445
NUMBER_OF_BYTES : 1529100304
_STATISTICS_WRITING_APP : mkvmerge v7.0.0 ('Where We Going') 32bit built on Jun 9 2014 15:08:34
_STATISTICS_WRITING_DATE_UT : 2015-01-24 16:59:28
_STATISTICS_TAGS : BPS DURATION NUMBER_OF_FRAMES NUMBER_OF_BYTES
Video
ID : 1
Format : AVC
Format/Info : Advanced Video Codec
Format profile : High@L4.1
Format settings, CABAC : Yes
Format settings, ReFrames : 6 frames
Codec ID : V_MPEG4/ISO/AVC
Duration : 50mn 57s
Bit rate : 4 000 Kbps
Width : 1 280 pixels
Height : 720 pixels
Display aspect ratio : 16:9
Frame rate mode : Constant
Frame rate : 25.000 fps
Color space : YUV
Chroma subsampling : 4:2:0
Bit depth : 8 bits
Scan type : Progressive
Bits/(Pixel*Frame) : 0.174
Stream size : 1.39 GiB (89%)
Writing library : x264 core 142 r2431 ac76440
Encoding settings : cabac=1 / ref=6 / deblock=1:0:0 / analyse=0x3:0x133 / me=umh / subme=9 / psy=1 / psy_rd=1.00:0.00 / mixed_ref=1 / me_range=24 / chroma_me=1 / trellis=2 / 8x8dct=1 / cqm=0 / deadzone=21,11 / fast_pskip=1 / chroma_qp_offset=-2 / threads=12 / lookahead_threads=1 / sliced_threads=0 / nr=0 / decimate=1 / interlaced=0 / bluray_compat=0 / constrained_intra=0 / bframes=6 / b_pyramid=2 / b_adapt=2 / b_bias=0 / direct=3 / weightb=1 / open_gop=0 / weightp=2 / keyint=250 / keyint_min=25 / scenecut=40 / intra_refresh=0 / rc_lookahead=50 / rc=2pass / mbtree=1 / bitrate=4000 / ratetol=1.0 / qcomp=0.60 / qpmin=0 / qpmax=69 / qpstep=4 / cplxblur=20.0 / qblur=0.5 / ip_ratio=1.40 / aq=1:1.00
Default : Yes
Forced : No
Audio
ID : 2
Format : AC-3
Format/Info : Audio Coding 3
Mode extension : CM (complete main)
Format settings, Endianness : Big
Codec ID : A_AC3
Duration : 50mn 57s
Bit rate mode : Constant
Bit rate : 384 Kbps
Channel(s) : 6 channels
Channel positions : Front: L C R, Side: L R, LFE
Sampling rate : 48.0 KHz
Bit depth : 16 bits
Compression mode : Lossy
Stream size : 140 MiB (9%)
Language : Russian
Default : Yes
Forced : No



   Похожие торренты   Торрент   Размер 
В этой теме нет новых непрочитанных сообщений. Воины (2015) VOD-DL 720p

64 | 13

791.38 МБ

В этой теме нет новых непрочитанных сообщений. Неистовые холода: Возвращение в ледниковый период (2015) PC

519 | 31

730.93 МБ

В этой теме нет новых непрочитанных сообщений. Багги: Короли бездорожья (2005) PC

3 | 7

1009.7 МБ

В этой теме нет новых непрочитанных сообщений. Фактор холода / Замороженный ужас / Chill Factor (1999) BDRip 720p | Р2

10 | 9

4.51 ГБ

В этой теме нет новых непрочитанных сообщений. Жизнь замечательных идей. Битва за Северный полюс [32] (2010) IPTVRip от Generalfilm

1 | 114

306.38 МБ

В этой теме нет новых непрочитанных сообщений. Монстры Бездорожья / Monster Truck Fury (2003) PC

7 | 3

76.17 МБ

В этой теме нет новых непрочитанных сообщений. Врата: Там бьются наши воины ТВ-1 / Gate: Jieitai Kanochi nite, Kaku Tatakaeri TV-1 [01-12 из 12] (2015) HDTVRip 720p | AlFair Studio

199 | 33

6.18 ГБ




Вы не можете начинать темы
Вы не можете отвечать на сообщения
Вы не можете редактировать свои сообщения
Вы не можете удалять свои сообщения
Вы не можете добавлять вложения

Перейти:  
Для Мосгорсуда, Роскомнадзора и рекламодателей: mosgorsud-torrent[собачка]yandex.ru
Настройки
ppkBB3cker v.2 © 2008-2014 @ PPK
[ Time : 0.021s | 15 Queries | GZIP : Off ]
CGP [Extreme] output time : 0.00021s | 0 Queries | GZIP : Off

Торрент трекер RUTOR.IN, Не можете зайти на rutor.org? Какой новый адрес рутор? Какое зеркало рутор? Не работает rutor.org и зеркала? Тогда наш торрент специально для вас. Rutor.in неофициальное зеркало rutor. В случае если у Вас заблокирован rutor или вдруг Вы не можете на него зайти, то Вы без труда сможете скачать бесплатно и без рекламы последние новинки кино, игр, сериалов и прочего у нас, на Rutor.in. Не нужно использовать прокси, чтобы зайти на рутор, достаточно воспользоваться нашим ресурсом. Все новые фильмы, игры, сериалы, книги и музыка за 2013 и 2014 годы через торрент бесплатно. Скачивайте фильмы в хорошем качестве, игры для пк, xbox, playstation без регистрации. У нас вы найдете новые Зарубежные сериалы и Русские сериалы 2013, 2014, 2015 годов. Оставайтесь с нами, качайте любимые фильмы, игры, сериалы, книги и музыку.