img image001 image001 image001 image001 image001 image001 image001 image001 image001 image001 image001 image001 image001 image001 image001

Planets Sun Sun Sun
Статистика раздачи
Автор: Nickolas3434 | Размер: 2.61 ГБ | Добавлен: 26 янв 2015
Раздают: 39    Качают: 8
Скачать торрент
Скачать торрент
Описание торрента

СообщениеДобавлено: 26 янв 2015 

Дата/Год выпуска: 23.01.2015
Страна: Россия
Телеканал: Россия 1
Жанр: Церемония Награждения
Продолжительность: 2:55:22
Ведущие: Дарья Златопольская и Юрий Стоянов
Режиссер: Феликс Михайлов

Описание: 13-я церемония вручения наград премии «Золотой Орёл» за заслуги в области российского кинематографа и телевидения за 2014 год состоялась 23 января 2015 года в первом павильоне киноконцерна «Мосфильм».

качество: DVBRip
формат: MP4
Видео: 704x400 (16:9), 25,000 fps, H264, ~2000 kbps avg, ~0.284 bit/pixel
Аудио: 48 kHz, AAC, 2/0 (L,R) ch, ~128.00 kbps avg

Лучший игровой фильм:
«Солнечный удар»
«Белые ночи почтальона Алексея Тряпицына»
«Звезда»
«Левиафан»
«Weekend»
Лучший телефильм или мини-сериал (до 10 серий включительно):
«Бесы»
«Гетеры майора Соколова»
«Крик совы»
Лучший телевизионный сериал (более 10 серий):
«Оттепель»
«Куприн»
«Станица»
Лучший неигровой фильм:
«Янковский»
«Беслан. Память»
«Лев Толстой и Илья Гинзбург: двойной портрет на фоне эпохи»
Лучший анимационный фильм:
«Иван Царевич и Серый Волк 2»
«Белка и Стрелка: Лунные приключения»
«Фредерик Шопен»
Лучшая режиссерская работа:
Андрей Звягинцев — «Левиафан»
Андрей Кончаловский — «Белые ночи почтальона Алексея Тряпицына»
Никита Михалков — «Солнечный удар»
Лучший сценарий:
Андрей Кончаловский, Елена Киселева — «Белые ночи почтальона Алексея Тряпицына»
Станислав Говорухин — «Weekend»
Олег Негин, Андрей Звягинцев — «Левиафан»
Лучшая мужская роль в кино:
Александр Збруев — «Кино про Алексеева»
Максим Матвеев — «Weekend»
Алексей Серебряков — «Левиафан»
Лучшая женская роль в кино:
Елена Лядова — «Левиафан»
Дарья Мороз — «Дурак»
Юлия Пересильд — «Weekend»
Лучшая мужская роль второго плана:
Роман Мадянов — «Левиафан»
Владимир Ильин — «Поддубный»
Виктор Сухоруков — «Weekend»
Лучшая женская роль второго плана:
Северия Янушаускайте — «Звезда»
Екатерина Гусева — «Weekend»
Евгения Добровольская — «На дне»
Лучшая мужская роль на телевидении:
Евгений Цыганов — «Оттепель»
Сергей Пускепалис — «Крик совы»
Александр Яценко — «Оттепель»
Лучшая женская роль на телевидении:
Виктория Исакова — «Оттепель»
Мария Миронова — «Крик совы»
Анна Чиповская — «Оттепель»
Лучшая операторская работа:
Владислав Опельянц — «Солнечный удар»
Юрий Клименко — «Weekend»
Михаил Кричман — «Левиафан»
Лучшая работа художника-постановщика:
Валентин Гидулянов — «Солнечный удар»
Андрей Понкратов — «Левиафан»
Григорий Пушкин — «Поддубный»
Лучшая работа художника по костюмам:
Сергей Стручев — «Солнечный удар»
Людмила Гаинцева — «Шагал – Малевич»
Наталья Дзюбенко — «Поддубный»
Лучшая музыка к фильму:
Эдуард Артемьев — «Солнечный удар»
Эдуард Артемьев — «Белые ночи почтальона Алексея Тряпицына»
Артем Васильев — «Weekend»
Лучший монтаж фильма:
Анна Масс — «Левиафан»
Петр Зеленов — «Вий»
Вера Круглова — «Weekend»
Лучшая работа звукорежиссера:
Олег Урусов — «Weekend»
Кирилл Василенко — «Звезда»
Андрей Дергачев — «Левиафан»
Лучший зарубежный фильм в российском прокате:
«Отель ''Гранд Будапешт''» (США, Германия, Великобритания)
«Волк с Уолл-стрит» (США)
«Жизнь Адель» (Франция)
General
Complete name : E:uTorrent.TempTempZolotoy.Orel.2015.DVBRip-AVC.x264-lrn.mp4
Format : MPEG-4
Format profile : Base Media
Codec ID : isom
File size : 2.61 GiB
Duration : 2h 55mn
Overall bit rate mode : Variable
Overall bit rate : 2 132 Kbps
Encoded date : UTC 2015-01-25 07:47:27
Tagged date : UTC 2015-01-25 07:47:27
Writing application : Yamb 2.1.0.0 [http://yamb.unite-video.com]
Copyright : lrn
Video
ID : 1
Format : AVC
Format/Info : Advanced Video Codec
Format profile : High@L4.1
Format settings, CABAC : Yes
Format settings, ReFrames : 6 frames
Codec ID : avc1
Codec ID/Info : Advanced Video Coding
Duration : 2h 55mn
Bit rate : 2 000 Kbps
Maximum bit rate : 8 525 Kbps
Width : 704 pixels
Height : 400 pixels
Display aspect ratio : 16:9
Frame rate mode : Constant
Frame rate : 25.000 fps
Color space : YUV
Chroma subsampling : 4:2:0
Bit depth : 8 bits
Scan type : Progressive
Bits/(Pixel*Frame) : 0.284
Stream size : 2.45 GiB (94%)
Title : Zolotoy.Orel.2015.DVBRip.x264-lrn
Writing library : x264 core 142 r2431 ac76440
Encoding settings : cabac=1 / ref=6 / deblock=1:0:0 / analyse=0x3:0x133 / me=umh / subme=9 / psy=1 / psy_rd=1.00:0.00 / mixed_ref=1 / me_range=24 / chroma_me=1 / trellis=2 / 8x8dct=1 / cqm=0 / deadzone=21,11 / fast_pskip=1 / chroma_qp_offset=-2 / threads=12 / lookahead_threads=1 / sliced_threads=0 / nr=0 / decimate=1 / interlaced=0 / bluray_compat=0 / constrained_intra=0 / bframes=6 / b_pyramid=2 / b_adapt=2 / b_bias=0 / direct=3 / weightb=1 / open_gop=0 / weightp=2 / keyint=250 / keyint_min=25 / scenecut=40 / intra_refresh=0 / rc_lookahead=50 / rc=2pass / mbtree=1 / bitrate=2000 / ratetol=1.0 / qcomp=0.60 / qpmin=0 / qpmax=69 / qpstep=4 / cplxblur=20.0 / qblur=0.5 / ip_ratio=1.40 / aq=1:1.00
Encoded date : UTC 2015-01-24 23:55:57
Tagged date : UTC 2015-01-25 07:49:00
Audio
ID : 2
Format : AAC
Format/Info : Advanced Audio Codec
Format profile : LC
Codec ID : 40
Duration : 2h 55mn
Bit rate mode : Variable
Bit rate : 128 Kbps
Maximum bit rate : 133 Kbps
Channel(s) : 2 channels
Channel positions : Front: L R
Sampling rate : 48.0 KHz
Compression mode : Lossy
Stream size : 161 MiB (6%)
Language : Russian
Encoded date : UTC 2015-01-25 07:48:46
Tagged date : UTC 2015-01-25 07:49:00



   Похожие торренты   Торрент   Размер 
В этой теме нет новых непрочитанных сообщений. Золотой граммофон. 20-я Церемония вручения народной премии [01 из 02] (2015) HDTVRip от GeneralFilm

332 | 44

1.47 ГБ

В этой теме нет новых непрочитанных сообщений. Золотой граммофон. 20-я Церемония вручения народной премии [01 из 02] (2015) HDTVRip от GeneralFilm

358 | 176

2.91 ГБ

В этой теме нет новых непрочитанных сообщений. 87-я Церемония Вручения Премии «Оскар» 2015 / The 87th Annual Academy Awards [22.02] (2015) DVBRip

143 | 2

2.94 ГБ

В этой теме нет новых непрочитанных сообщений. 72-я Церемония вручения премии Золотой глобус 2015 / The 72nd Golden Globe Awards 2015 (2015) HDTVRip 720p

118 | 11

2.63 ГБ

В этой теме нет новых непрочитанных сообщений. Золотой граммофон. 20-я Церемония вручения народной премии [01 из 02] (2015) HDTV 1080i от GeneralFilm

207 | 158

13.36 ГБ

В этой теме нет новых непрочитанных сообщений. Золотой граммофон. 20-я Церемония вручения народной премии [01 из 02] (2015) HDTV 1080i от GeneralFilm

196 | 31

6.73 ГБ

В этой теме нет новых непрочитанных сообщений. 71-я Церемония вручения премии Золотой глобус (2014) HDTVRip 720р

3 | 2

3.12 ГБ




Вы не можете начинать темы
Вы не можете отвечать на сообщения
Вы не можете редактировать свои сообщения
Вы не можете удалять свои сообщения
Вы не можете добавлять вложения

Перейти:  
Для Мосгорсуда, Роскомнадзора и рекламодателей: mosgorsud-torrent[собачка]yandex.ru
 Вход
ppkBB3cker v.2 © 2008-2014 @ PPK
[ Time : 0.071s | 15 Queries | GZIP : Off ]

Торрент трекер RUTOR.IN, Не можете зайти на rutor.org? Какой новый адрес рутор? Какое зеркало рутор? Не работает rutor.org и зеркала? Тогда наш торрент специально для вас. Rutor.in неофициальное зеркало rutor. В случае если у Вас заблокирован rutor или вдруг Вы не можете на него зайти, то Вы без труда сможете скачать бесплатно и без рекламы последние новинки кино, игр, сериалов и прочего у нас, на Rutor.in. Не нужно использовать прокси, чтобы зайти на рутор, достаточно воспользоваться нашим ресурсом. Все новые фильмы, игры, сериалы, книги и музыка за 2013 и 2014 годы через торрент бесплатно. Скачивайте фильмы в хорошем качестве, игры для пк, xbox, playstation без регистрации. У нас вы найдете новые Зарубежные сериалы и Русские сериалы 2013, 2014, 2015 годов. Оставайтесь с нами, качайте любимые фильмы, игры, сериалы, книги и музыку.