img image001 image001 image001 image001 image001 image001 image001 image001 image001 image001 image001 image001 image001 image001 image001

Planets Sun Sun Sun
Статистика раздачи
Автор: Nickolas3434 | Размер: 35.74 ГБ | Добавлен: 28 янв 2015
Раздают: 28    Качают: 15
Скачать торрент
Скачать торрент
Описание торрента

СообщениеДобавлено: 28 янв 2015 

Информация о фильме
Название: Нерассказанная история Соединенных Штатов Оливера Стоуна
Оригинальное название: The Untold History of the United States
Год выхода: 2012
Жанр: Документальный, исторический, телесериал
Режиссер: Oliver Stone
В ролях: Chris Edgerly, Alan Sherman, Alex Veadov, Jim Ward
О фильме:
Режиссер Оливер Стоун («Александр», «Взвод», «Рожденный четвертого июля») предлагает вниманию публики свой документальный фильм «Нерассказанная история Соединенных Штатов» (The Untold History of the United States), который бросает вызов традиционным взглядам на американскую историю.
Десятисерийный проект Стоуна поднимает завесу над темными сторонами существования Америки в свете их значения для возвеличивания или же принижения американской империи.
Понятие американской исключительности, истоки которой идут еще с проповеди 1630 года, прочитанной Джоном Винтропом на борту «Арабеллы», одного из первых кораблей с переселенцами, прочно завладело умами американцев. Большинство при этом никогда не признают, что у США есть имперские замашки. Однако история говорит о другом.
Атомные бомбежки Хиросимы и Нагасаки, главная роль в развязывании холодной войны, финансирование исламских фундаменталистов ради борьбы с СССР и их союзниками, что в конечном итоге обернулось против самих же США, нарушение президентами США Конституции своей страны – эти и многие другие примеры, о которых идет речь в фильме, неуклонно свидетельствуют о том, что исторические факты часто толкуются так, как это выгодно американским политикам. Есть ли у Америки возможность измениться?

Список серий:
Глава 1. Вторая мировая война
Глава 2. Рузвельт, Трумэн, Уоллес
Глава 3. Бомба
Глава 4. Холодная война 1945-1950
Глава 5. 50-е годы: Эйзенхауэр, бомба и страны третьего мира
Глава 6. На грани
Глава 7. Джонсон, Никсон и Вьетнам: Как отвернулась фортуна
Глава 8. Горбачев и третий мир: Усиление правых сил
Глава 9. Буш, Клинтон: Победа США, новый мировой порядок
_
Глава 10. Буш, Обама: Эра террора.
Добавлена 9 серия. Приятного просмотра!

Официальный сайт
Страна: США
Студия: Secret Histroy, LLC.
Продолжительность: 00:58:35
Перевод: Профессиональный (одноголосый) - [Первый канал]
Файл
Кодек: AVC
Качество: HDTVRip 1080i
Видео: , 1920x1080, 16:9, ~8607 Кбит/сек, 25,000 кадров/сек
Звук: AC-3, 2 канала, 192 Кбит/сек
Формат : Matroska
Версия формата : Version 2
Размер файла : 4,34 Гбайт
Продолжительность : 57 м.
Общий поток : 10,7 Мбит/сек
Программа кодирования : Lavf52.64.2
Библиотека кодирования : Lavf52.64.2
Видео
Идентификатор : 1
Формат : AVC
Формат/Информация : Advanced Video Codec
Профиль формата : High@L4.0
Параметр CABAC формата : Да
Параметр ReFrames формата : 4 кадра
Идентификатор кодека : V_MPEG4/ISO/AVC
Продолжительность : 57 м.
Битрейт : 10,3 Мбит/сек
Ширина : 1920 пикселей
Высота : 1080 пикселей
Соотношение сторон : 16:9
Режим частоты кадров : Постоянный
Частота кадров : 25,000 кадров/сек
Стандарт вещания : Component
Цветовое пространство : YUV
Субдискретизация насыщенности : 4:2:0
Битовая глубина : 8 бит
Тип развёртки : Чересстрочная
Порядок развёртки : Верхнее поле первое
Бит/(Пиксели*Кадры) : 0.199
Размер потока : 4,18 Гбайт (96%)
Default : Да
Forced : Нет
Основные цвета : BT.709
Характеристики трансфера : BT.709
Коэффициенты матрицы : BT.709
Аудио
Идентификатор : 2
Формат : AC-3
Формат/Информация : Audio Coding 3
Расширение режима : CM (complete main)
Параметр Endianness формата : Big
Идентификатор кодека : A_AC3
Продолжительность : 57 м.
Вид битрейта : Постоянный
Битрейт : 192 Кбит/сек
Каналы : 2 канала
Расположение каналов : Front: L R
Частота : 48,0 КГц
Битовая глубина : 16 бит
Метод сжатия : С потерями
Размер потока : 79,6 Мбайт (2%)
Default : Да
Forced : Нет





   Похожие торренты   Торрент   Размер 
В этой теме нет новых непрочитанных сообщений. Нерассказанная история США Оливера Стоуна / The Untold History of the United States [01x01-03 из 10] (2012) HDTVRip 1080i | P1

80 | 24

12.15 ГБ

В этой теме нет новых непрочитанных сообщений. Нерассказанная история США Оливера Стоуна / The Untold History of the United States [01x01-05 из 10] (2012) HDTVRip 1080i | P1

25 | 9

20.3 ГБ

В этой теме нет новых непрочитанных сообщений. Нерассказанная история США Оливера Стоуна / The Untold History of the United States [01x01-08 из 10] (2012) HDTVRip 1080i | P1

64 | 117

31.56 ГБ

В этой теме нет новых непрочитанных сообщений. Нерассказанная история США Оливера Стоуна / The Untold History of the United States [01x01-06 из 10] (2012) HDTVRip 1080i | P1

99 | 54

23.99 ГБ

В этой теме нет новых непрочитанных сообщений. Нерассказанная история США Оливера Стоуна / The Untold History of the United States [01x01-04 из 10] (2012) HDTVRip 1080i | P1

109 | 43

16.27 ГБ

В этой теме нет новых непрочитанных сообщений. Нерассказанная история США Оливера Стоуна / The Untold History of the United States [01x01-07 из 10] (2012) HDTVRip 1080i | P1

121 | 89

27.95 ГБ

В этой теме нет новых непрочитанных сообщений. Нерассказанная история США Оливера Стоуна / The Untold History of the United States [01x01-10 из 10] (2012) HDTVRip 1080i | P1

65 | 29

37.82 ГБ




Вы не можете начинать темы
Вы не можете отвечать на сообщения
Вы не можете редактировать свои сообщения
Вы не можете удалять свои сообщения
Вы не можете добавлять вложения

Перейти:  
Для Мосгорсуда, Роскомнадзора и рекламодателей: mosgorsud-torrent[собачка]yandex.ru
 Вход
ppkBB3cker v.2 © 2008-2014 @ PPK
[ Time : 0.228s | 15 Queries | GZIP : On ]

Торрент трекер RUTOR.IN, Не можете зайти на rutor.org? Какой новый адрес рутор? Какое зеркало рутор? Не работает rutor.org и зеркала? Тогда наш торрент специально для вас. Rutor.in неофициальное зеркало rutor. В случае если у Вас заблокирован rutor или вдруг Вы не можете на него зайти, то Вы без труда сможете скачать бесплатно и без рекламы последние новинки кино, игр, сериалов и прочего у нас, на Rutor.in. Не нужно использовать прокси, чтобы зайти на рутор, достаточно воспользоваться нашим ресурсом. Все новые фильмы, игры, сериалы, книги и музыка за 2013 и 2014 годы через торрент бесплатно. Скачивайте фильмы в хорошем качестве, игры для пк, xbox, playstation без регистрации. У нас вы найдете новые Зарубежные сериалы и Русские сериалы 2013, 2014, 2015 годов. Оставайтесь с нами, качайте любимые фильмы, игры, сериалы, книги и музыку.