img image001 image001 image001 image001 image001 image001 image001 image001 image001 image001 image001 image001 image001 image001 image001

Planets Sun Sun Sun
Статистика раздачи
Автор: Nickolas3434 | Размер: 2.68 ГБ | Добавлен: 29 янв 2015
Раздают: 203    Качают: 25
Скачать торрент
Скачать торрент
Описание торрента

СообщениеДобавлено: 29 янв 2015 

Год выпуска: 2015
Страна: Россия
Канал: Первый Канал HD
Жанр: Авторская песня
Продолжительность: 1:27:20

Описание: В эфире Первого вновь "Своя Колея" - ежегодная церемония вручения премии Фонда Высоцкого. Премия "Своя Колея" была учреждена в 1997 году, ее идея принадлежит сыну поэта Никите Высоцкому. Премия вручается людям, которые не изменяют своим убеждениям, кому сегодня, возможно, захотел бы посвятить песню В. Высоцкий; людям, чья жизнь и творчество созвучны темам его поэзии. Лауреатам вручается почетный знак, номерная золотая медаль, на одной из сторон которой высечен профиль Высоцкого, нарисованный им самим и его автограф.

Качество: HDTV 720p
Контейнер: MKV
Видео: H.264 | 1280x720 (16:9), 25,000 fps, H264, ~4000 kbps avg, ~0.174 bit/pixel
Аудио: AC3 | 48 kHz, AC3 Dolby Digital, 3/2 (L,C,R,l,r) + LFE ch, ~384.00 kbps avg

1) Сукачев - Привередливые кони (3:27 - ...)
2) Сукачев - Разбойничья (8:54 - ...)
3) Сергей Безруков - Баллада об уходе в рай (13:41 - ...)
Награждение первого лауреата Премии Высоцкого
4) Ольга Дроздова и Дмитрий Певцов - "Я несла свою беду..." и "Родники Мои" (Дом Хрустальный) (20:03 - ...)
5) Дмитрий Харатьян - Она была в Париже... (24:04 - ...)
6) Сергей Гармаш - В Ленинграде-городе... (26:30...)
7) Сукачев - Очи черные, часть II (29:02 - ...)
Награждение второго лауреата Премии Высоцкого
8) Сукачев и Александр Ф. Скляр - Сыновья уходят в бой (35:02 - ...)
9) Никита Высоцкий - Песня о госпитале (38:20 - ...)
10) Владимир Шахрин - Песня о нейтральной полосе (40:45 - ...)
11) Сукачев - Банька по-белому (44:37 - ...)
Награждение третьего лауреата Премии Высоцкого
12) Сукачев - Тот, который не стрелял (54:26 - ...)
13) Михаил Ефремов - Лекция о международном положении... (57:55 - )
14) Чулпан Хаматова - Песня про белого слона (1:02:23 - ...)
15) Сукачев и Александр Ф. Скляр - Татуировка (1:06:10 - ...)
16) Евгения Смольянинова - Так случилось, мужчины ушли (1:09:54 - ...)
17) Сукачев - Про речку Вачу... (1:15:28 - ...)
18) Актеры театра "Современник" - Частушки (1:20:31 - ...)
19) Сукачев и все вместе - На Большой Каретный (1:24:34 - ...)
General
Unique ID : 181725951760779214691323869344949034098 (0x88B7252CEE374F18BE576E8862FF5C72)
Complete name : E:ConverXtoDVD.Temp!DocSvoya.Koleya.2015.HDTV.720p.x264-lrn.mkv
Format : Matroska
Format version : Version 4 / Version 2
File size : 2.68 GiB
Duration : 1h 27mn
Overall bit rate : 4 386 Kbps
Movie name : 'Svoya.Koleya.2015.HDTV.720p.x264' by lrn © 2015
Encoded date : UTC 2010-02-22 21:41:31
Writing application : mkvmerge v5.9.0 ('On The Loose') built on Dec 9 2012 15:37:01
Writing library : libebml v1.3.0 + libmatroska v1.4.0
DURATION : 01:27:20.200000000
NUMBER_OF_FRAMES : 131005
NUMBER_OF_BYTES : 2620205707
_STATISTICS_WRITING_APP : mkvmerge v7.0.0 ('Where We Going') 32bit built on Jun 9 2014 15:08:34
_STATISTICS_WRITING_DATE_UT : 2015-01-28 04:24:32
_STATISTICS_TAGS : BPS DURATION NUMBER_OF_FRAMES NUMBER_OF_BYTES
Video
ID : 1
Format : AVC
Format/Info : Advanced Video Codec
Format profile : High@L4.1
Format settings, CABAC : Yes
Format settings, ReFrames : 6 frames
Codec ID : V_MPEG4/ISO/AVC
Duration : 1h 27mn
Bit rate : 4 000 Kbps
Width : 1 280 pixels
Height : 720 pixels
Display aspect ratio : 16:9
Frame rate mode : Constant
Frame rate : 25.000 fps
Color space : YUV
Chroma subsampling : 4:2:0
Bit depth : 8 bits
Scan type : Progressive
Bits/(Pixel*Frame) : 0.174
Stream size : 2.39 GiB (89%)
Writing library : x264 core 142 r2431 ac76440
Encoding settings : cabac=1 / ref=6 / deblock=1:0:0 / analyse=0x3:0x133 / me=umh / subme=9 / psy=1 / psy_rd=1.00:0.00 / mixed_ref=1 / me_range=24 / chroma_me=1 / trellis=2 / 8x8dct=1 / cqm=0 / deadzone=21,11 / fast_pskip=1 / chroma_qp_offset=-2 / threads=12 / lookahead_threads=1 / sliced_threads=0 / nr=0 / decimate=1 / interlaced=0 / bluray_compat=0 / constrained_intra=0 / bframes=6 / b_pyramid=2 / b_adapt=2 / b_bias=0 / direct=3 / weightb=1 / open_gop=0 / weightp=2 / keyint=250 / keyint_min=25 / scenecut=40 / intra_refresh=0 / rc_lookahead=50 / rc=2pass / mbtree=1 / bitrate=4000 / ratetol=1.0 / qcomp=0.60 / qpmin=0 / qpmax=69 / qpstep=4 / cplxblur=20.0 / qblur=0.5 / ip_ratio=1.40 / aq=1:1.00
Default : Yes
Forced : No
Audio
ID : 2
Format : AC-3
Format/Info : Audio Coding 3
Mode extension : CM (complete main)
Format settings, Endianness : Big
Codec ID : A_AC3
Duration : 1h 27mn
Bit rate mode : Constant
Bit rate : 384 Kbps
Channel(s) : 6 channels
Channel positions : Front: L C R, Side: L R, LFE
Sampling rate : 48.0 KHz
Bit depth : 16 bits
Compression mode : Lossy
Stream size : 240 MiB (9%)
Language : Russian
Default : Yes
Forced : No



   Похожие торренты   Торрент   Размер 
В этой теме нет новых непрочитанных сообщений. Своя колея - Концерт к дню рождения Владимира Высоцкого (2011) SATRip

6 | 3

1.2 ГБ

В этой теме нет новых непрочитанных сообщений. К дню рождения Владимира Высоцкого. Своя колея (2013) HDTV 1080i

6 | 10

4.82 ГБ

В этой теме нет новых непрочитанных сообщений. К дню рождения Владимира Высоцкого. Своя колея (2013) SATRip

92 | 3

1023.32 МБ

В этой теме нет новых непрочитанных сообщений. Пётр Елфимов - Я не поэт... Концерт в день рождения Владимира Мулявина (2015) DVB

16 | 4

1.51 ГБ

В этой теме нет новых непрочитанных сообщений. Юбилейный вечер Галины Волчек. В театре Современник [эфир от 21.12] (2013) IPTVRip 720p от waPBX

0 | 1

1.49 ГБ

В этой теме нет новых непрочитанных сообщений. Юбилейный вечер Галины Волчек. В театре Современник [21.12] (2013) IPTVRip 1080p от waPBX

0 | 1

3.57 ГБ

В этой теме нет новых непрочитанных сообщений. VA - Памяти Владимира Высоцкого (2001) MP3

261 | 30

158.72 МБ




Вы не можете начинать темы
Вы не можете отвечать на сообщения
Вы не можете редактировать свои сообщения
Вы не можете удалять свои сообщения
Вы не можете добавлять вложения

Перейти:  
Для Мосгорсуда, Роскомнадзора и рекламодателей: mosgorsud-torrent[собачка]yandex.ru
 Вход
ppkBB3cker v.2 © 2008-2014 @ PPK
[ Time : 0.053s | 16 Queries | GZIP : Off ]

Торрент трекер RUTOR.IN, Не можете зайти на rutor.org? Какой новый адрес рутор? Какое зеркало рутор? Не работает rutor.org и зеркала? Тогда наш торрент специально для вас. Rutor.in неофициальное зеркало rutor. В случае если у Вас заблокирован rutor или вдруг Вы не можете на него зайти, то Вы без труда сможете скачать бесплатно и без рекламы последние новинки кино, игр, сериалов и прочего у нас, на Rutor.in. Не нужно использовать прокси, чтобы зайти на рутор, достаточно воспользоваться нашим ресурсом. Все новые фильмы, игры, сериалы, книги и музыка за 2013 и 2014 годы через торрент бесплатно. Скачивайте фильмы в хорошем качестве, игры для пк, xbox, playstation без регистрации. У нас вы найдете новые Зарубежные сериалы и Русские сериалы 2013, 2014, 2015 годов. Оставайтесь с нами, качайте любимые фильмы, игры, сериалы, книги и музыку.