img image001 image001 image001 image001 image001 image001 image001 image001 image001 image001 image001 image001 image001 image001 image001

Planets Sun Sun Sun
Статистика раздачи
Автор: Nickolas3434 | Размер: 14.34 ГБ | Добавлен: 07 фев 2015
Раздают: 9    Качают: 3
Скачать торрент
Скачать торрент
Описание торрента

СообщениеДобавлено: 07 фев 2015 

Мисс Вселенная 2014 / Miss Universe 2014

Дата/Год выпуска: 25.01.2015
Страна: USA
Жанр: Конкурс красоты
Продолжительность: 1:58:48
Перевод: Отсутствует
Русские субтитры: нет
Телеканал: NBC
Описание: Мисс Вселенная (англ. Miss Universe) — ежегодный международный конкурс красоты, один из самых престижных конкурсов красоты в мире, наряду с конкурсами Мисс Мира, Мисс Интернешнл и Мисс Земля.
В этом году финал конкурса «Мисс Вселенная-2014» прошёл в Майами, США 25 января 2015 года. В конкурсе участвовали 88 участниц из разных стран мира. Шоу в прямом эфире показывал телеканал NBC.
Ведущие конкурса Thomas Roberts и Natalie Morales.
Приглашенные гости Nick Jonas и Prince Royce

Каппер - группа MTeam
Сэмпл: http://multi-up.com/1029870
качество: HDTV 1080i
формат: TS
Видео: MPEG 2, 1920x1080 (16:9), 15.7 Mbps, 25 fps
Аудио#1: MP2, 384 Kbps, 48.0 KHz, 2 ch
Аудио#2: MP2, 384 Kbps, 48.0 KHz, 2 ch

General
ID : 1 (0x1)
Complete name : K:THE 63rd Miss Universe HDTV 1080i MPEG2-MTeamTHE_63rd_Miss_Universe_HDTV_1080i.ts
Format : MPEG-TS
File size : 14.3 GiB
Duration : 1h 58mn
Overall bit rate mode : Variable
Overall bit rate : 17.3 Mbps
Maximum Overall bit rate : 35.5 Mbps
Video
ID : 4113 (0x1011)
Menu ID : 1 (0x1)
Format : MPEG Video
Format version : Version 2
Format profile : Main@High
Format settings, BVOP : Yes
Format settings, Matrix : Custom
Format settings, GOP : Variable
Codec ID : 2
Duration : 1h 58mn
Bit rate : 15.7 Mbps
Maximum bit rate : 16.0 Mbps
Width : 1 920 pixels
Height : 1 080 pixels
Display aspect ratio : 16:9
Frame rate : 25.000 fps
Color space : YUV
Chroma subsampling : 4:2:0
Bit depth : 8 bits
Scan type : Interlaced
Scan order : Top Field First
Compression mode : Lossy
Bits/(Pixel*Frame) : 0.302
Time code of first frame : 00:01:22:20
Time code source : Group of pictures header
Stream size : 13.0 GiB (91%)
Audio #1
ID : 4352 (0x1100)
Menu ID : 1 (0x1)
Format : MPEG Audio
Format version : Version 1
Format profile : Layer 2
Codec ID : 4
Duration : 1h 58mn
Bit rate mode : Constant
Bit rate : 384 Kbps
Channel(s) : 2 channels
Sampling rate : 48.0 KHz
Compression mode : Lossy
Delay relative to video : -73ms
Stream size : 326 MiB (2%)
Language : English
Audio #2
ID : 4353 (0x1101)
Menu ID : 1 (0x1)
Format : MPEG Audio
Format version : Version 1
Format profile : Layer 2
Codec ID : 4
Duration : 1h 58mn
Bit rate mode : Constant
Bit rate : 384 Kbps
Channel(s) : 2 channels
Sampling rate : 48.0 KHz
Compression mode : Lossy
Delay relative to video : -73ms
Stream size : 326 MiB (2%)
Language : English








   Похожие торренты   Торрент   Размер 
В этой теме нет новых непрочитанных сообщений. Мисс Вселенная 2009 / Miss Universe (2009) DVDRip by GENADIY

3 | 1

1.37 ГБ

В этой теме нет новых непрочитанных сообщений. Мисс Вселенная - 2011 / Miss Universe - 2011 (2011) SATRip

3 | 24

982.09 МБ

В этой теме нет новых непрочитанных сообщений. Недружественная Вселенная / Bad Universe [S01] (2010) HDTV 1080i

62 | 9

5.36 ГБ

В этой теме нет новых непрочитанных сообщений. Вселенная Стивена Хокинга: История всего / Discovery. Stephen Hawking. Universe (2010) HDTV 1080i от GeneralFilm

В этой теме нет новых непрочитанных сообщений. Мисс Америка 2014 / Miss America 2014 (2013) HDTVRip 720р

0 | 1

2.79 ГБ

В этой теме нет новых непрочитанных сообщений. Мисс Медоуз / Miss Meadows (2014) WEB-DLRip | L1

755 | 90

1.36 ГБ

В этой теме нет новых непрочитанных сообщений. Мисс Медоуз / Miss Meadows (2014) WEB-DL 720p | L1

204 | 14

2.73 ГБ




Вы не можете начинать темы
Вы не можете отвечать на сообщения
Вы не можете редактировать свои сообщения
Вы не можете удалять свои сообщения
Вы не можете добавлять вложения

Перейти:  
Для Мосгорсуда, Роскомнадзора и рекламодателей: mosgorsud-torrent[собачка]yandex.ru
 Вход
ppkBB3cker v.2 © 2008-2014 @ PPK
[ Time : 0.052s | 16 Queries | GZIP : Off ]

cron