img image001 image001 image001 image001 image001 image001 image001 image001 image001 image001 image001 image001 image001 image001 image001

Planets Sun Sun Sun
Статистика раздачи
Автор: Nickolas3434 | Размер: 1.45 ГБ | Добавлен: 10 фев 2015
Раздают: 43    Качают: 31
Скачать торрент
Скачать торрент
Описание торрента

СообщениеДобавлено: 10 фев 2015 

TУ-124: Посадка на Неву



#77
Год выпуска: 2015
Страна: Россия
Канал: Первый Канала HD
Жанр: Документальный
Продолжительность: 0:47:29
Режиссер: Роман Новолокин

Описание: Это произошло 21 августа 1963 года. В тот день планировался обычный рейс - из Таллинна в Москву. На борту - 44 пассажира и 6 членов экипажа. Но через минуту после взлета техник замечает, что передняя стойка шасси убралась не полностью, осталась в полусогнутом положении - ее заклинило. Капитан Ту-124 Виктор Мостовой передает диспетчеру о неполадке. В ответ слышит: готовьтесь к аварийной посадке. Обычно в такой ситуации борт возвращается обратно в аэропорт, пока не поздно. Но в Таллине из-за тумана плохая видимость. Поэтому диспетчеры отправляют самолет в ближайший город, где есть аварийная полоса и летная погода. Им оказывается Ленинград.

Тип релиза: HDTVRip 720p
Контейнер: MKV
Видео: 1280x720 (16:9), 25,000 fps, H264, ~4000 kbps avg, ~0.174 bit/pixel
Аудио: 48 kHz, AC3 Dolby Digital, 3/2 (L,C,R,l,r) + LFE ch, ~384.00 kbps avg

General
Unique ID : 175452534306821186931075105902867289330 (0x83FEEDD095E973C8813AC4A55ADC94F2)
Complete name : E:uTorrent.TempTempPosadka.na.Nevu.2015.HDTV.720p.x264-lrn.mkv
Format : Matroska
Format version : Version 4 / Version 2
File size : 1.45 GiB
Duration : 47mn 29s
Overall bit rate : 4 385 Kbps
Movie name : 'Posadka.na.Nevu.2015.HDTV.720p.x264-lrn' by lrn © 2015
Encoded date : UTC 2010-02-22 21:41:31
Writing application : mkvmerge v5.9.0 ('On The Loose') built on Dec 9 2012 15:37:01
Writing library : libebml v1.3.0 + libmatroska v1.4.0
DURATION : 00:47:29.160000000
NUMBER_OF_FRAMES : 71229
NUMBER_OF_BYTES : 1424275430
_STATISTICS_WRITING_APP : mkvmerge v7.0.0 ('Where We Going') 32bit built on Jun 9 2014 15:08:34
_STATISTICS_WRITING_DATE_UT : 2015-02-08 17:53:55
_STATISTICS_TAGS : BPS DURATION NUMBER_OF_FRAMES NUMBER_OF_BYTES
Video
ID : 1
Format : AVC
Format/Info : Advanced Video Codec
Format profile : High@L4.1
Format settings, CABAC : Yes
Format settings, ReFrames : 6 frames
Codec ID : V_MPEG4/ISO/AVC
Duration : 47mn 29s
Bit rate : 4 000 Kbps
Width : 1 280 pixels
Height : 720 pixels
Display aspect ratio : 16:9
Frame rate mode : Constant
Frame rate : 25.000 fps
Color space : YUV
Chroma subsampling : 4:2:0
Bit depth : 8 bits
Scan type : Progressive
Bits/(Pixel*Frame) : 0.174
Stream size : 1.30 GiB (89%)
Writing library : x264 core 142 r2431 ac76440
Encoding settings : cabac=1 / ref=6 / deblock=1:0:0 / analyse=0x3:0x133 / me=umh / subme=9 / psy=1 / psy_rd=1.00:0.00 / mixed_ref=1 / me_range=24 / chroma_me=1 / trellis=2 / 8x8dct=1 / cqm=0 / deadzone=21,11 / fast_pskip=1 / chroma_qp_offset=-2 / threads=12 / lookahead_threads=1 / sliced_threads=0 / nr=0 / decimate=1 / interlaced=0 / bluray_compat=0 / constrained_intra=0 / bframes=6 / b_pyramid=2 / b_adapt=2 / b_bias=0 / direct=3 / weightb=1 / open_gop=0 / weightp=2 / keyint=250 / keyint_min=25 / scenecut=40 / intra_refresh=0 / rc_lookahead=50 / rc=2pass / mbtree=1 / bitrate=4000 / ratetol=1.0 / qcomp=0.60 / qpmin=0 / qpmax=69 / qpstep=4 / cplxblur=20.0 / qblur=0.5 / ip_ratio=1.40 / aq=1:1.00
Default : Yes
Forced : No
Audio
ID : 2
Format : AC-3
Format/Info : Audio Coding 3
Mode extension : CM (complete main)
Format settings, Endianness : Big
Codec ID : A_AC3
Duration : 47mn 29s
Bit rate mode : Constant
Bit rate : 384 Kbps
Channel(s) : 6 channels
Channel positions : Front: L C R, Side: L R, LFE
Sampling rate : 48.0 KHz
Bit depth : 16 bits
Compression mode : Lossy
Stream size : 130 MiB (9%)
Language : Russian
Default : Yes
Forced : No



   Похожие торренты   Торрент   Размер 
В этой теме нет новых непрочитанных сообщений. TУ - 124. Посадка на Неву (2015) HDTVRip от GeneralFilm

34 | 4

746.01 МБ

В этой теме нет новых непрочитанных сообщений. TУ - 124. Посадка на Неву (2015) SATRip

25 | 5

746.44 МБ

В этой теме нет новых непрочитанных сообщений. TУ - 124. Посадка на Неву (2015) HDTV 1080i

21 | 8

1.67 ГБ

В этой теме нет новых непрочитанных сообщений. Вам посадка! (2010) PC

1 | 2

11.03 МБ

В этой теме нет новых непрочитанных сообщений. NG: Ловец комет: Миссия "Розетта" (Розетта: посадка на комету) / Comet Catcher: The Rosetta Landing (2014) HDTVRip от Kaztorrents | P1

13 | 3

661.31 МБ

В этой теме нет новых непрочитанных сообщений. Грубая посадка (1985) WEBRip

49 | 4

698.15 МБ

В этой теме нет новых непрочитанных сообщений. Жёсткая посадка (2010) SATRip

0 | 26

671.47 МБ




Вы не можете начинать темы
Вы не можете отвечать на сообщения
Вы не можете редактировать свои сообщения
Вы не можете удалять свои сообщения
Вы не можете добавлять вложения

Перейти:  
Для Мосгорсуда, Роскомнадзора и рекламодателей: mosgorsud-torrent[собачка]yandex.ru
 Вход
ppkBB3cker v.2 © 2008-2014 @ PPK
[ Time : 0.051s | 17 Queries | GZIP : Off ]

cron