img image001 image001 image001 image001 image001 image001 image001 image001 image001 image001 image001 image001 image001 image001 image001

Planets Sun Sun Sun
Статистика раздачи
Автор: Nickolas3434 | Размер: 1.63 ГБ | Добавлен: 11 фев 2015
Раздают: 330    Качают: 20
Скачать торрент
Скачать торрент
Описание торрента

СообщениеДобавлено: 11 фев 2015 

57-я Ежегодная Церемония Вручения Музыкальной Премии "Грэмми" / 57th Annual Grammy Awards 2015


#77
Страна: США | CBS
Жанр: Церемония Вручения Наград | Концерт
Продолжительность: 1:49:36
Год выпуска: 2015
Озвучка: Профессиональная Двухголосая Закадровая (Алексей Мануйлов и Яна Чурикова)

Описание: 57 церемония вручения наград в области музыки Grammy Award, проходящая в Staples Center в Лос Анджелесе 2015. Ведущий LL Cool J.

Автор рипа: lrn
Автор записи: mydimka

Тип релиза: HDTVRip
Контейнер: mp4
Видео: 720x400 (16:9), 25,000 fps, H264, ~2000 kbps avg, ~0.278 bit/pixel
Аудио: 48 kHz, AAC, 2/0 (L,R) ch, ~128.00 kbps avg

01. AC/DC - Rock or Bust / Highway to Hell
02. Madonna - Living for Love
03. Tom Jones & Jessie J - You've Lost That Lovin' Feelin'
04. Ed Sheeran - Thinking Out Loud
05. Electric Light Orchestra - Evil Woman / Mr. Blue Sky
06. Adam Levine & Gwen Stefani - My Heart Is Open
07. Hozier & Annie Lennox - Take Me to Church / I Put a Spell on You
08. Pharrell Williams - Happy
09. Tony Bennett & Lady Gaga - Cheek to Cheek
10. Usher - If It's Magic
11. Katy Perry - By the Grace of God
12. Sam Smith & Mary J. Blige - Stay with Me
13. Juanes - Juntos (Together)
14. Sia - Chandelier
15. Beck & Chris Martin - Heart is a Drum
16. Rihanna & Kanye West & Paul McCartney - FourFiveSeconds
17. Beyoncé - Take My Hand, Precious Lord
18. John Legend & Common - Glory
General
Complete name : E:uTorrent.TempTempThe.57th.Annual.Grammy.Awards.2015.HDTV.400p.x264-RUS-lrn.mp4
Format : MPEG-4
Format profile : Base Media
Codec ID : isom
File size : 1.63 GiB
Duration : 1h 49mn
Overall bit rate mode : Variable
Overall bit rate : 2 132 Kbps
Encoded date : UTC 2015-02-10 14:56:21
Tagged date : UTC 2015-02-10 14:56:21
Copyright : lrn
Video
ID : 1
Format : AVC
Format/Info : Advanced Video Codec
Format profile : High@L4.1
Format settings, CABAC : Yes
Format settings, ReFrames : 6 frames
Codec ID : avc1
Codec ID/Info : Advanced Video Coding
Duration : 1h 49mn
Bit rate : 2 000 Kbps
Maximum bit rate : 7 394 Kbps
Width : 720 pixels
Height : 400 pixels
Display aspect ratio : 16:9
Frame rate mode : Constant
Frame rate : 25.000 fps
Color space : YUV
Chroma subsampling : 4:2:0
Bit depth : 8 bits
Scan type : Progressive
Bits/(Pixel*Frame) : 0.278
Stream size : 1.53 GiB (94%)
Title : The.57th.Annual.Grammy.Awards.2015.HDTV.400p.x264-RUS
Writing library : x264 core 142 r2431 ac76440
Encoding settings : cabac=1 / ref=6 / deblock=1:0:0 / analyse=0x3:0x133 / me=umh / subme=9 / psy=1 / psy_rd=1.00:0.00 / mixed_ref=1 / me_range=24 / chroma_me=1 / trellis=2 / 8x8dct=1 / cqm=0 / deadzone=21,11 / fast_pskip=1 / chroma_qp_offset=-2 / threads=12 / lookahead_threads=1 / sliced_threads=0 / nr=0 / decimate=1 / interlaced=0 / bluray_compat=0 / constrained_intra=0 / bframes=6 / b_pyramid=2 / b_adapt=2 / b_bias=0 / direct=3 / weightb=1 / open_gop=0 / weightp=2 / keyint=250 / keyint_min=25 / scenecut=40 / intra_refresh=0 / rc_lookahead=50 / rc=2pass / mbtree=1 / bitrate=2000 / ratetol=1.0 / qcomp=0.60 / qpmin=0 / qpmax=69 / qpstep=4 / cplxblur=20.0 / qblur=0.5 / ip_ratio=1.40 / aq=1:1.00
Encoded date : UTC 2015-02-10 14:43:18
Tagged date : UTC 2015-02-10 14:57:05
Audio
ID : 2
Format : AAC
Format/Info : Advanced Audio Codec
Format profile : LC
Codec ID : 40
Duration : 1h 49mn
Bit rate mode : Variable
Bit rate : 128 Kbps
Maximum bit rate : 133 Kbps
Channel(s) : 2 channels
Channel positions : Front: L R
Sampling rate : 48.0 KHz
Compression mode : Lossy
Stream size : 100 MiB (6%)
Language : Russian
Encoded date : UTC 2015-02-10 14:57:00
Tagged date : UTC 2015-02-10 14:57:05



   Похожие торренты   Торрент   Размер 
В этой теме нет новых непрочитанных сообщений. 57-я церемония вручения наград Грэмми / The 57th Grammy Awards 2015 (2015) HDTVRip 720p | Первый Канал

109 | 18

3.36 ГБ

В этой теме нет новых непрочитанных сообщений. 57-я церемония вручения наград Грэмми / The 57th Grammy Awards 2015 (2015) HDTVRip

73 | 24

1.02 ГБ

В этой теме нет новых непрочитанных сообщений. 57-я церемония вручения наград Грэмми / The 57th Grammy Awards 2015 (2015) HDTVRip 720р | CBS

35 | 2

4.81 ГБ

В этой теме нет новых непрочитанных сообщений. 57-я церемония вручения наград Грэмми / The 57th Grammy Awards 2015 (2015) HDTV 1080i

20 | 9

7.5 ГБ

В этой теме нет новых непрочитанных сообщений. 57-я церемония вручения наград Грэмми / The 57th Grammy Awards 2015 (2015) HDTV 1080i

16 | 11

17.22 ГБ

В этой теме нет новых непрочитанных сообщений. 57-я церемония вручения наград Грэмми / The 57th Grammy Awards 2015 (2015) HDTV 1080i | CBS

19 | 3

13.23 ГБ

В этой теме нет новых непрочитанных сообщений. 56-я церемония вручения наград Грэмми / The 56th Grammy Awards 2014 (2014) HDTVRip-AVC от MediaClub

28 | 9

4.24 ГБ




Вы не можете начинать темы
Вы не можете отвечать на сообщения
Вы не можете редактировать свои сообщения
Вы не можете удалять свои сообщения
Вы не можете добавлять вложения

Перейти:  
Для Мосгорсуда, Роскомнадзора и рекламодателей: mosgorsud-torrent[собачка]yandex.ru
 Вход
ppkBB3cker v.2 © 2008-2014 @ PPK
[ Time : 0.022s | 15 Queries | GZIP : Off ]

Торрент трекер RUTOR.IN, Не можете зайти на rutor.org? Какой новый адрес рутор? Какое зеркало рутор? Не работает rutor.org и зеркала? Тогда наш торрент специально для вас. Rutor.in неофициальное зеркало rutor. В случае если у Вас заблокирован rutor или вдруг Вы не можете на него зайти, то Вы без труда сможете скачать бесплатно и без рекламы последние новинки кино, игр, сериалов и прочего у нас, на Rutor.in. Не нужно использовать прокси, чтобы зайти на рутор, достаточно воспользоваться нашим ресурсом. Все новые фильмы, игры, сериалы, книги и музыка за 2013 и 2014 годы через торрент бесплатно. Скачивайте фильмы в хорошем качестве, игры для пк, xbox, playstation без регистрации. У нас вы найдете новые Зарубежные сериалы и Русские сериалы 2013, 2014, 2015 годов. Оставайтесь с нами, качайте любимые фильмы, игры, сериалы, книги и музыку.