img image001 image001 image001 image001 image001 image001 image001 image001 image001 image001 image001 image001 image001 image001 image001

Planets Sun Sun Sun
Статистика раздачи
Автор: Nickolas3434 | Размер: 13.23 ГБ | Добавлен: 14 фев 2015
Раздают: 19    Качают: 3
Скачать торрент
Скачать торрент
Описание торрента

СообщениеДобавлено: 14 фев 2015 

57-я Ежегодная Церемония Вручения Музыкальной Премии "Грэмми" / 57th Annual Grammy Awards 2015


#77
Страна: США | CBS
Жанр: Церемония Вручения Наград | Концерт
Продолжительность: 2:37:06
Год выпуска: 2015
Озвучка: Оригинал

Описание: 57 церемония вручения наград в области музыки Grammy Award, проходящая в Staples Center в Лос Анжелесе 2015. Ведущий LL Cool J.

Автор рипа/записи: TG

Качество: HDTV 1080i
Контейнер: TS
Видео: 1920x1080 (16:9), 29,970 fps, MPEG2, ~11.1 Mbps avg, ~0.178 bit/pixel
Аудио: 48 kHz, AC3 Dolby Digital, 3/2 (L,C,R,l,r) + LFE ch, ~384.00 kbps avg

01. AC/DC - Rock or Bust / Highway to Hell
02. Ariana Grande - Just a Little Bit of Your Heart
03. Tom Jones & Jessie J - You've Lost That Lovin' Feelin'
04. Miranda Lambert - Little Red Wagon
05. Kanye West - Only One
06. Madonna - Living for Love
07. Ed Sheeran - Thinking Out Loud
08. Electric Light Orchestra - Evil Woman / Mr. Blue Sky
09. Adam Levine & Gwen Stefani - My Heart Is Open
10. Hozier & Annie Lennox - Take Me to Church / I Put a Spell on You
11. Pharrell Williams - Happy
12. Katy Perry - By the Grace of God
13. Tony Bennett & Lady Gaga - Cheek to Cheek
14. Usher - If It's Magic
15. Eric Church - Give Me Back My Hometown
16. Brandy Clark & Dwight Yoakam - Hold My Hand
17. Rihanna & Kanye West & Paul McCartney - FourFiveSeconds
18. Sam Smith & Mary J. Blige - Stay with Me
19. Juanes - Juntos (Together)
20. Sia - Chandelier
21. Beck & Chris Martin - Heart is a Drum
22. Beyoncé - Take My Hand, Precious Lord
23. John Legend & Common - Glory
General
ID : 1 (0x1)
Complete name : E:uTorrent.TempTempThe.57th.Annual.Grammy.Awards.2015.1080i.HDTV.DD5.1.MPEG2-TG.ts
Format : MPEG-TS
File size : 13.2 GiB
Duration : 2h 37mn
Overall bit rate mode : Variable
Overall bit rate : 12.1 Mbps
Maximum Overall bit rate : 35.5 Mbps
Movie name : Program Name
Video
ID : 4113 (0x1011)
Menu ID : 1 (0x1)
Format : MPEG Video
Format version : Version 2
Format profile : Main@High
Format settings, BVOP : Yes
Format settings, Matrix : Custom
Format settings, GOP : Variable
Format settings, picture st : Frame
Codec ID : 2
Duration : 2h 37mn
Bit rate mode : Variable
Bit rate : 11.1 Mbps
Maximum bit rate : 80.0 Mbps
Width : 1 920 pixels
Height : 1 080 pixels
Display aspect ratio : 16:9
Active Format Deion : Full frame 16:9 image
Frame rate : 29.970 fps
Color space : YUV
Chroma subsampling : 4:2:0
Bit depth : 8 bits
Scan type : Interlaced
Scan order : Top Field First
Compression mode : Lossy
Bits/(Pixel*Frame) : 0.178
Time code of first frame : 00:00:00;00
Time code source : Group of pictures header
GOP, Open/Closed : Closed
Stream size : 12.2 GiB (92%)
Color primaries : BT.709
Transfer characteristics : BT.709
Matrix coefficients : BT.709
Audio
ID : 4352 (0x1100)
Menu ID : 1 (0x1)
Format : AC-3
Format/Info : Audio Coding 3
Mode extension : CM (complete main)
Format settings, Endianness : Big
Codec ID : 129
Duration : 2h 37mn
Bit rate mode : Constant
Bit rate : 384 Kbps
Channel(s) : 6 channels
Channel positions : Front: L C R, Side: L R, LFE
Sampling rate : 48.0 KHz
Bit depth : 16 bits
Compression mode : Lossy
Stream size : 432 MiB (3%)
Language : English
Text #1
ID : 4113 (0x1011)-CC1
Menu ID : 1 (0x1)
Format : EIA-608
Muxing mode : A/53 / DTVCC Transport
Muxing mode, more info : Muxed in Video #1
Duration : 2h 37mn
Bit rate mode : Constant
Stream size : 0.00 Byte (0%)
Text #2
ID : 4113 (0x1011)-CC3
Menu ID : 1 (0x1)
Format : EIA-608
Muxing mode : A/53 / DTVCC Transport
Muxing mode, more info : Muxed in Video #1
Duration : 2h 37mn
Bit rate mode : Constant
Stream size : 0.00 Byte (0%)
Text #3
ID : 4113 (0x1011)-1
Menu ID : 1 (0x1)
Format : EIA-708
Muxing mode : A/53 / DTVCC Transport
Muxing mode, more info : Muxed in Video #1
Duration : 2h 37mn
Bit rate mode : Constant
Stream size : 0.00 Byte (0%)
Text #4
ID : 4113 (0x1011)-2
Menu ID : 1 (0x1)
Format : EIA-708
Muxing mode : A/53 / DTVCC Transport
Muxing mode, more info : Muxed in Video #1
Duration : 2h 37mn
Bit rate mode : Constant
Stream size : 0.00 Byte (0%)



   Похожие торренты   Торрент   Размер 
В этой теме нет новых непрочитанных сообщений. 57-я церемония вручения наград Грэмми / The 57th Grammy Awards 2015 (2015) HDTV 1080i

16 | 11

17.22 ГБ

В этой теме нет новых непрочитанных сообщений. 57-я церемония вручения наград Грэмми / The 57th Grammy Awards 2015 (2015) HDTV 1080i

20 | 9

7.5 ГБ

В этой теме нет новых непрочитанных сообщений. 57-я церемония вручения наград Грэмми / The 57th Grammy Awards 2015 (2015) HDTVRip

73 | 24

1.02 ГБ

В этой теме нет новых непрочитанных сообщений. 57-я церемония вручения наград Грэмми / The 57th Grammy Awards 2015 (2015) HDTVRip 720р | CBS

35 | 2

4.81 ГБ

В этой теме нет новых непрочитанных сообщений. 57-я церемония вручения наград Грэмми / The 57th Grammy Awards 2015 (2015) HDTVRip | Первый Канал

330 | 20

1.63 ГБ

В этой теме нет новых непрочитанных сообщений. 57-я церемония вручения наград Грэмми / The 57th Grammy Awards 2015 (2015) HDTVRip 720p | Первый Канал

109 | 18

3.36 ГБ

В этой теме нет новых непрочитанных сообщений. 56-я церемония вручения наград Грэмми / The 56th Grammy Awards 2014 (2014) HDTVRip-AVC от MediaClub

28 | 9

4.24 ГБ




Вы не можете начинать темы
Вы не можете отвечать на сообщения
Вы не можете редактировать свои сообщения
Вы не можете удалять свои сообщения
Вы не можете добавлять вложения

Перейти:  
Для Мосгорсуда, Роскомнадзора и рекламодателей: mosgorsud-torrent[собачка]yandex.ru
 Вход
ppkBB3cker v.2 © 2008-2014 @ PPK
[ Time : 0.042s | 15 Queries | GZIP : On ]

Торрент трекер RUTOR.IN, Не можете зайти на rutor.org? Какой новый адрес рутор? Какое зеркало рутор? Не работает rutor.org и зеркала? Тогда наш торрент специально для вас. Rutor.in неофициальное зеркало rutor. В случае если у Вас заблокирован rutor или вдруг Вы не можете на него зайти, то Вы без труда сможете скачать бесплатно и без рекламы последние новинки кино, игр, сериалов и прочего у нас, на Rutor.in. Не нужно использовать прокси, чтобы зайти на рутор, достаточно воспользоваться нашим ресурсом. Все новые фильмы, игры, сериалы, книги и музыка за 2013 и 2014 годы через торрент бесплатно. Скачивайте фильмы в хорошем качестве, игры для пк, xbox, playstation без регистрации. У нас вы найдете новые Зарубежные сериалы и Русские сериалы 2013, 2014, 2015 годов. Оставайтесь с нами, качайте любимые фильмы, игры, сериалы, книги и музыку.