img image001 image001 image001 image001 image001 image001 image001 image001 image001 image001 image001 image001 image001 image001 image001

Planets Sun Sun Sun
Статистика раздачи
Автор: Nickolas3434 | Размер: 1008.99 МБ | Добавлен: 14 фев 2015
Раздают: 23    Качают: 3
Скачать торрент
Скачать торрент
Описание торрента

СообщениеДобавлено: 14 фев 2015 

41-я Церемония Вручения Премии "Peoples Choice Awards 2015" / The 41st Annual Peoples Choice Awards 2015


#77
Дата выпуска: 07.01.2015
Страна: США
Телеканал: CBS
Жанр: Церемония Награждения
Продолжительность: 1:30:21

Описание: Ежегодная американская премия в области музыки, кино и телевидения "People's Choice Awards 2015". Церемония вручение наград прошла 7 января в Лос-Анджелесе.

Автор рипа/записи: 2HD

Качество: HDTVRip
Формат: MP4
Видео кодек: H264
Аудио кодек: AAC

Лучший фильм:
Мачо и ботан 2
Первый мститель: Другая война
Стражи Галактики
Малефисента
Люди Икс: Дни минувшего будущего

Лучший киноактер:
Брэд Питт
Ченнинг Татум
Хью Джекман
Марк Уолберг
Робер Дауни-младший

Лучшая киноактриса:
Анджелина Джоли
Эмма Стоун
Дженнифер Лоуренс
Мелисса МакКарти
Скарлет Йохансон

Лучший драматический фильм:
Виноваты звезды
Посвященный
Небеса реальны
Если я останусь
Ной

Лучший драматический киноактер:
Бен Аффлек
Брэд Питт
Джордж Клуни
Мэтт Дэймон
Роберт Дауни-младший

Лучшая драматическая киноактриса:
Хлоя Грейс Морец
Эмма Стоун
Мэрил Стрип
Риз Уизерспун
Шейлин Вудли

Лучший певец:
Блэйк Шелтон
Эд Ширан
Джон Ледженд
Фаррелл Уильямс
Сэм Смит

Лучшая певица:
Бейонсе
Игги Азалия
Кэти Перри
Сия Ферлер
Тейлор Свифт

Лучшая группа:
Coldplay
Imagine Dragons
Maroon 5
One Direction
OneRepublic

Лучший исполнитель поп-музыки:
Бейонсе
Дженнифер Лопес
Джесси Джей
Сия Ферлер
Тейлор Свифт

Лучший исполнитель hip-hop:
Дрейк
Игги Азалия
Jay-Z
Ники Минаж
T.I.

Лучший исполнитель R&B:
Крис Браун
Дженнифер Хадсон
Джон Ледженд
Фаррелл Уильямс
Ашер
General
Complete name : E:uTorrent.TempTempThe.41st.Annual.Peoples.Choice.Awards.2015.HDTV.x264-2HD.mp4
Format : MPEG-4
Format profile : Base Media
Codec ID : isom
File size : 1 009 MiB
Duration : 1h 30mn
Overall bit rate mode : Variable
Overall bit rate : 1 561 Kbps
Encoded date : UTC 2015-01-08 19:40:10
Tagged date : UTC 2015-01-08 19:40:10
Video
ID : 1
Format : AVC
Format/Info : Advanced Video Codec
Format profile : High@L3.1
Format settings, CABAC : Yes
Format settings, ReFrames : 5 frames
Codec ID : avc1
Codec ID/Info : Advanced Video Coding
Duration : 1h 30mn
Bit rate : 1 425 Kbps
Maximum bit rate : 14.1 Mbps
Width : 720 pixels
Height : 404 pixels
Display aspect ratio : 16:9
Frame rate mode : Constant
Frame rate : 29.970 fps
Color space : YUV
Chroma subsampling : 4:2:0
Bit depth : 8 bits
Scan type : Progressive
Bits/(Pixel*Frame) : 0.163
Stream size : 921 MiB (91%)
Writing library : x264 core 144 r2525 40bb568
Encoding settings : cabac=1 / ref=5 / deblock=1:0:0 / analyse=0x3:0x113 / me=umh / subme=8 / psy=1 / psy_rd=1.00:0.00 / mixed_ref=1 / me_range=16 / chroma_me=1 / trellis=1 / 8x8dct=1 / cqm=0 / deadzone=21,11 / fast_pskip=1 / chroma_qp_offset=-2 / threads=12 / lookahead_threads=2 / sliced_threads=0 / nr=0 / decimate=1 / interlaced=0 / bluray_compat=0 / constrained_intra=0 / bframes=3 / b_pyramid=2 / b_adapt=2 / b_bias=0 / direct=3 / weightb=1 / open_gop=0 / weightp=2 / keyint=250 / keyint_min=25 / scenecut=40 / intra_refresh=0 / rc_lookahead=50 / rc=crf / mbtree=1 / crf=21.0 / qcomp=0.60 / qpmin=0 / qpmax=69 / qpstep=4 / ip_ratio=1.40 / aq=1:1.00
Encoded date : UTC 2015-01-08 19:40:09
Tagged date : UTC 2015-01-08 19:40:22
Matrix coefficients : BT.709
Color range : Limited
Audio
ID : 2
Format : AAC
Format/Info : Advanced Audio Codec
Format profile : LC
Codec ID : 40
Duration : 1h 30mn
Bit rate mode : Variable
Bit rate : 132 Kbps
Maximum bit rate : 149 Kbps
Channel(s) : 2 channels
Channel positions : Front: L R
Sampling rate : 48.0 KHz
Compression mode : Lossy
Stream size : 85.3 MiB (8%)
Encoded date : UTC 2015-01-08 19:40:21
Tagged date : UTC 2015-01-08 19:40:22
Видео: 720x404 (16:9), 29,970 fps, H264, ~1400 kbps avg, ~0.163 bit/pixel
Аудио: 48 kHz, AAC, 2/0 (L,R), ~132.00 kbps avg
Перевод: Отсутствует
Русские субтитры: Нет
Оригинальная аудиодорожка: Английская




   Похожие торренты   Торрент   Размер 
В этой теме нет новых непрочитанных сообщений. 41-я Церемония Вручения Премии "Peoples Choice Awards 2015" / The 41st Annual Peoples Choice Awards 2015 (2015) HDTVRip 720p

25 | 9

2.43 ГБ

В этой теме нет новых непрочитанных сообщений. 87-я Церемония Вручения Премии «Оскар» 2015 / The 87th Annual Academy Awards [22.02] (2015) HDTVRip

57 | 9

1.75 ГБ

В этой теме нет новых непрочитанных сообщений. 87-я Церемония Вручения Премии «Оскар» 2015 / The 87th Annual Academy Awards [22.02] (2015) HDTVRip 720p

130 | 27

4.6 ГБ

В этой теме нет новых непрочитанных сообщений. 87-я Церемония Вручения Премии «Оскар» 2015 / The 87th Annual Academy Awards [22.02] (2015) HDTVRip | Первый Канал

200 | 7

1.03 ГБ

В этой теме нет новых непрочитанных сообщений. 87-я Церемония Вручения Премии «Оскар» 2015 / The 87th Annual Academy Awards [22.02] (2015) HDTVRip 720p | Первый Канал

793 | 19

2.76 ГБ

В этой теме нет новых непрочитанных сообщений. 67-я Церемония Вручения Премии Эмми / The 67th Annual Primetime Emmy Awards (2015) HDTVRip-AVC | NOVAMEDiA

61 | 13

1.5 ГБ

В этой теме нет новых непрочитанных сообщений. 67-я Церемония Вручения Премии Эмми / The 67th Annual Primetime Emmy Awards (2015) HDTVRip 720p | NOVAMEDiA

62 | 6

3.3 ГБ




Вы не можете начинать темы
Вы не можете отвечать на сообщения
Вы не можете редактировать свои сообщения
Вы не можете удалять свои сообщения
Вы не можете добавлять вложения

Перейти:  
Для Мосгорсуда, Роскомнадзора и рекламодателей: mosgorsud-torrent[собачка]yandex.ru
 Вход
ppkBB3cker v.2 © 2008-2014 @ PPK
[ Time : 0.036s | 17 Queries | GZIP : Off ]

Торрент трекер RUTOR.IN, Не можете зайти на rutor.org? Какой новый адрес рутор? Какое зеркало рутор? Не работает rutor.org и зеркала? Тогда наш торрент специально для вас. Rutor.in неофициальное зеркало rutor. В случае если у Вас заблокирован rutor или вдруг Вы не можете на него зайти, то Вы без труда сможете скачать бесплатно и без рекламы последние новинки кино, игр, сериалов и прочего у нас, на Rutor.in. Не нужно использовать прокси, чтобы зайти на рутор, достаточно воспользоваться нашим ресурсом. Все новые фильмы, игры, сериалы, книги и музыка за 2013 и 2014 годы через торрент бесплатно. Скачивайте фильмы в хорошем качестве, игры для пк, xbox, playstation без регистрации. У нас вы найдете новые Зарубежные сериалы и Русские сериалы 2013, 2014, 2015 годов. Оставайтесь с нами, качайте любимые фильмы, игры, сериалы, книги и музыку.