img image001 image001 image001 image001 image001 image001 image001 image001 image001 image001 image001 image001 image001 image001 image001

Planets Sun Sun Sun
Статистика раздачи
Автор: Nickolas3434 | Размер: 2.42 ГБ | Добавлен: 14 фев 2015
Раздают: 17    Качают: 3
Скачать торрент
Скачать торрент
Описание торрента

СообщениеДобавлено: 14 фев 2015 

Информация о фильме
Оригинальное название: Правда о лжи
Год выхода: 2015
Жанр: Документальный
Режиссер: Наталья Касьянова
О фильме:
Почему мы обманываем? Мы родились лжецами или такими нас воспитало общество? Почему современный мир называют обществом мыльного пузыря? Как наше тело выдает обман и правда ли что есть люди, которые не умеют лгать, а есть прирожденные вруны? И почему, чтобы обмануть детектор лжи, нужно сначала обмануть собственное тело?
Страна: Россия
Студия: канал Россия 1
Продолжительность: 00:44:00
Перевод: Не требуется
Общее
Идентификатор : 1 (0x1)
Полное имя : E:UsersМаксимкаDownloadsПравда о лжи (2015) HDTV 1080i.ts
Формат : MPEG-TS
Размер файла : 2,42 Гбайт
Продолжительность : 44 м.
Режим общего битрейта : Переменный
Общий поток : 7736 Кбит/сек
Видео
Идентификатор : 1901 (0x76D)
Идентификатор меню : 1 (0x1)
Формат : AVC
Формат/Информация : Advanced Video Codec
Профиль формата : High@L4.0
Параметр CABAC формата : Да
Параметр ReFrames формата : 3 кадра
Идентификатор кодека : 27
Продолжительность : 44 м.
Битрейт : 7127 Кбит/сек
Ширина : 1920 пикселей
Высота : 1080 пикселей
Соотношение сторон : 16:9
Частота кадров : 25,000 кадров/сек
Стандарт вещания : Component
Цветовое пространство : YUV
Субдискретизация насыщенности : 4:2:0
Битовая глубина : 8 бит
Тип развёртки : Чересстрочная
Порядок развёртки : Верхнее поле первое
Бит/(Пиксели*Кадры) : 0.137
Размер потока : 2,23 Гбайт (92%)
Основные цвета : BT.709
Характеристики трансфера : BT.709
Коэффициенты матрицы : BT.709
colour_range : Limited
Аудио
Идентификатор : 2901 (0xB55)
Идентификатор меню : 1 (0x1)
Формат : MPEG Audio
Версия формата : Version 1
Профиль формата : Layer 2
Идентификатор кодека : 3
Продолжительность : 44 м.
Вид битрейта : Постоянный
Битрейт : 224 Кбит/сек
Каналы : 2 канала
Частота : 48,0 КГц
Метод сжатия : С потерями
Размер потока : 71,7 Мбайт (3%)
Язык : Russian

Файл
Кодек: AVC
Качество: HDTV 1080i
Видео: 1920х1080 (16:9), 25 fps, AVC MPEG-4 (x264), High@L4.0 ~ 7127 kbps avg, 0.137 bit/pixel
Звук: 48 kHz, MP2, 2 ch, 224 kbps avg


Релиз от:



   Похожие торренты   Торрент   Размер 
В этой теме нет новых непрочитанных сообщений. Сектор Зеро / Section zéro [01-04 из 8] (2016) HDTV 1080i HDTV 1080i от MediaClub | P

10 | 3

9.5 ГБ

В этой теме нет новых непрочитанных сообщений. Теннис. Australian Open 2015. 2-ой круг. День 4. Матчи 22.01.2015 [Eurosport HD] [22.01] (2015) HDTV 1080i

0 | 5

39.72 ГБ

В этой теме нет новых непрочитанных сообщений. Теннис. WTA Brisbane-2015. Брисбен-2015. Финал. Шарапова - Иванович [10.01] (2015) HDTV 1080i

54 | 49

5.87 ГБ

В этой теме нет новых непрочитанных сообщений. Теннис. Australian Open 2015. День 10. Матчи 28.01.2015 [Eurosport HD] [28.01] (2015) HDTV 1080i

1 | 7

29.78 ГБ

В этой теме нет новых непрочитанных сообщений. Теннис. Australian Open 2015. День 8. Матчи 26.01.2015 [Eurosport HD] [26.01] (2015) HDTV 1080i

0 | 3

61.04 ГБ

В этой теме нет новых непрочитанных сообщений. Теннис. Australian Open 2015. День 6. Матчи 24.01.2015 [Eurosport HD] [24.01] (2015) HDTV 1080i

2 | 12

48.24 ГБ

В этой теме нет новых непрочитанных сообщений. Теннис. Australian Open 2015. День 11. Матчи 29.01.2015 [Eurosport HD] [29.01] (2015) HDTV 1080i

4 | 27

24.96 ГБ




Вы не можете начинать темы
Вы не можете отвечать на сообщения
Вы не можете редактировать свои сообщения
Вы не можете удалять свои сообщения
Вы не можете добавлять вложения

Перейти:  
Для Мосгорсуда, Роскомнадзора и рекламодателей: mosgorsud-torrent[собачка]yandex.ru
 Вход
ppkBB3cker v.2 © 2008-2014 @ PPK
[ Time : 0.326s | 18 Queries | GZIP : Off ]

Торрент трекер RUTOR.IN, Не можете зайти на rutor.org? Какой новый адрес рутор? Какое зеркало рутор? Не работает rutor.org и зеркала? Тогда наш торрент специально для вас. Rutor.in неофициальное зеркало rutor. В случае если у Вас заблокирован rutor или вдруг Вы не можете на него зайти, то Вы без труда сможете скачать бесплатно и без рекламы последние новинки кино, игр, сериалов и прочего у нас, на Rutor.in. Не нужно использовать прокси, чтобы зайти на рутор, достаточно воспользоваться нашим ресурсом. Все новые фильмы, игры, сериалы, книги и музыка за 2013 и 2014 годы через торрент бесплатно. Скачивайте фильмы в хорошем качестве, игры для пк, xbox, playstation без регистрации. У нас вы найдете новые Зарубежные сериалы и Русские сериалы 2013, 2014, 2015 годов. Оставайтесь с нами, качайте любимые фильмы, игры, сериалы, книги и музыку.
cron