img image001 image001 image001 image001 image001 image001 image001 image001 image001 image001 image001 image001 image001 image001 image001

Planets Sun Sun Sun
Статистика раздачи
Автор: Nickolas3434 | Размер: 508.5 МБ | Добавлен: 03 мар 2015
Раздают: 29    Качают: 4
Скачать торрент
Скачать торрент
Описание торрента

СообщениеДобавлено: 03 мар 2015 

The Victoria's Secret Swim Special 2015


#77
Дата/Год выпуска: 26.02.2015
Страна: США | CBS
Жанр: Музыкальное Fashion-Шоу
Продолжительность: 0:42:34
Режиссер: Хэмиш Гамильтон

Описание: В этом году Victoria’s Secret проводит первый за всю свою историю показ купальников. Документальный фильм "Victoria’s Secret Swim Special" посвящен съемкам пляжной коллекции сезона весна-лето 2015 года. Съемки специального выпуска, в котором приняли участие Кэндис Свейнпол, Адриана Лима, Алессандра Амбросио и другие известные модели, прошли в Пуэрто-Рико. Музыкальными гостями шоу стали группа Maroon 5 и колумбийский певец Хуанес.

Автор рипа/записи: BATV

Качество: HDTVRip
Формат: MP4
Видео кодек: H264
Аудио кодек: AAC

General
Complete name : E:uTorrent.TempTempThe.Victorias.Secret.Swim.Special.2015.HDTV.x264-BATV.mp4
Format : MPEG-4
Format profile : Base Media
Codec ID : isom
File size : 508 MiB
Duration : 42mn 34s
Overall bit rate mode : Variable
Overall bit rate : 1 670 Kbps
Encoded date : UTC 2015-02-28 05:03:42
Tagged date : UTC 2015-02-28 05:03:42

Video
ID : 2
Format : AVC
Format/Info : Advanced Video Codec
Format profile : High@L3.1
Format settings, CABAC : Yes
Format settings, ReFrames : 5 frames
Codec ID : avc1
Codec ID/Info : Advanced Video Coding
Duration : 42mn 33s
Bit rate : 1 528 Kbps
Maximum bit rate : 6 822 Kbps
Width : 720 pixels
Height : 404 pixels
Display aspect ratio : 16:9
Frame rate mode : Constant
Frame rate : 23.976 fps
Color space : YUV
Chroma subsampling : 4:2:0
Bit depth : 8 bits
Scan type : Progressive
Bits/(Pixel*Frame) : 0.219
Stream size : 465 MiB (92%)
Writing library : x264 core 144 r2525 40bb568
Encoding settings : cabac=1 / ref=5 / deblock=1:0:0 / analyse=0x3:0x113 / me=umh / subme=8 / psy=1 / psy_rd=1.00:0.00 / mixed_ref=1 / me_range=16 / chroma_me=1 / trellis=1 / 8x8dct=1 / cqm=0 / deadzone=21,11 / fast_pskip=1 / chroma_qp_offset=-2 / threads=24 / lookahead_threads=3 / sliced_threads=0 / nr=0 / decimate=1 / interlaced=0 / bluray_compat=0 / constrained_intra=0 / bframes=3 / b_pyramid=2 / b_adapt=2 / b_bias=0 / direct=3 / weightb=1 / open_gop=0 / weightp=2 / keyint=250 / keyint_min=23 / scenecut=40 / intra_refresh=0 / rc_lookahead=50 / rc=crf / mbtree=1 / crf=21.0 / qcomp=0.60 / qpmin=0 / qpmax=69 / qpstep=4 / ip_ratio=1.40 / aq=1:1.00
Encoded date : UTC 2015-02-28 04:14:55
Tagged date : UTC 2015-02-28 05:03:44
Matrix coefficients : BT.709
Color range : Limited

Audio
ID : 1
Format : AAC
Format/Info : Advanced Audio Codec
Format profile : LC
Codec ID : 40
Duration : 42mn 34s
Bit rate mode : Variable
Bit rate : 138 Kbps
Maximum bit rate : 168 Kbps
Channel(s) : 2 channels
Channel positions : Front: L R
Sampling rate : 48.0 KHz
Compression mode : Lossy
Stream size : 41.9 MiB (8%)
Encoded date : UTC 2015-02-28 05:03:42
Tagged date : UTC 2015-02-28 05:03:44
Видео: 720x404 (16:9), 23,976 fps, H264, ~1500 kbps avg, ~0.219 bit/pixel
Аудио: 48 kHz, AAC, 2/0 (L,R) ch, ~138.00 kbps avg
Перевод: Отсутствует
Русские субтитры: Нет
Оригинальная аудиодорожка: Английская




   Похожие торренты   Торрент   Размер 
В этой теме нет новых непрочитанных сообщений. The Victoria's Secret Swim Special 2015 [26.02] (2015) HDTV 1080p

299 | 32

3.65 ГБ

В этой теме нет новых непрочитанных сообщений. The Victoria's Secret Swim Special 2015 [26.02] (2015) HDTV 720p

87 | 25

1.57 ГБ

В этой теме нет новых непрочитанных сообщений. The Victoria's Secret Fashion Show (2015) HDTVRip 720p

169 | 7

1.88 ГБ

В этой теме нет новых непрочитанных сообщений. Victoria's Secret Fashion Show (2009) HDTVRip

3 | 2

747.38 МБ

В этой теме нет новых непрочитанных сообщений. The Victoria's Secret Fashion Show (2005) HDTVRip 720p

6 | 0

1.21 ГБ

В этой теме нет новых непрочитанных сообщений. The Victoria's Secret Fashion Show (2011) HDTVRip 720p

164 | 3

3.37 ГБ

В этой теме нет новых непрочитанных сообщений. The Victoria's Secret Fashion Show (2011) HDTVRip 1080i-AVC

0 | 21

13.48 ГБ




Вы не можете начинать темы
Вы не можете отвечать на сообщения
Вы не можете редактировать свои сообщения
Вы не можете удалять свои сообщения
Вы не можете добавлять вложения

Перейти:  
Для Мосгорсуда, Роскомнадзора и рекламодателей: mosgorsud-torrent[собачка]yandex.ru
 Вход
ppkBB3cker v.2 © 2008-2014 @ PPK
[ Time : 0.029s | 15 Queries | GZIP : Off ]

Торрент трекер RUTOR.IN, Не можете зайти на rutor.org? Какой новый адрес рутор? Какое зеркало рутор? Не работает rutor.org и зеркала? Тогда наш торрент специально для вас. Rutor.in неофициальное зеркало rutor. В случае если у Вас заблокирован rutor или вдруг Вы не можете на него зайти, то Вы без труда сможете скачать бесплатно и без рекламы последние новинки кино, игр, сериалов и прочего у нас, на Rutor.in. Не нужно использовать прокси, чтобы зайти на рутор, достаточно воспользоваться нашим ресурсом. Все новые фильмы, игры, сериалы, книги и музыка за 2013 и 2014 годы через торрент бесплатно. Скачивайте фильмы в хорошем качестве, игры для пк, xbox, playstation без регистрации. У нас вы найдете новые Зарубежные сериалы и Русские сериалы 2013, 2014, 2015 годов. Оставайтесь с нами, качайте любимые фильмы, игры, сериалы, книги и музыку.