img image001 image001 image001 image001 image001 image001 image001 image001 image001 image001 image001 image001 image001 image001 image001

Planets Sun Sun Sun
Статистика раздачи
Автор: Nickolas3434 | Размер: 1.51 ГБ | Добавлен: 03 мар 2015
Раздают: 91    Качают: 5
Скачать торрент
Скачать торрент
Описание торрента

СообщениеДобавлено: 03 мар 2015 

Влад Листьев: Взгляд Через Двадцать Лет


#77
Год выпуска: 2015
Страна: Россия
Канал: Первый Канал HD | Красный квадрат
Жанр: Документальный
Продолжительность: 0:51:33
Режиссер: Константин Смилга

Описание: 20 лет назад не стало Влада Листьева. Владислав Листьев и по сей день остается одним из лучших российских телевизионщиков конца ХХ века, который заложил основы современного телевидения. Зрители, увидевшие его в культовой программе "Взгляд", считали Листьева беспечным и удачливым. На самом же деле в его жизни было немало трагедий.

Автор рипа: lrn
Автор записи: riper.am

Тип релиза: HDTVRip 720p
Контейнер: MKV
Видео: 1280x720 (16:9), 25,000 fps, H264, ~4000 kbps avg, ~0.174 bit/pixel
Аудио: 48 kHz, AC3 Dolby Digital, 2/0 (L,R) ch, ~192.00 kbps avg

General
Unique ID : 206555323695478446145763537561140388941 (0x9B651BBA0EE2C5EA9EFE3102B0D4E44D)
Complete name : E:uTorrent.TempTempVlad.Listyev.Vzglyad.Cherez.20.Let.2015.HDTV.720p.x264-lrn.mkv
Format : Matroska
Format version : Version 4 / Version 2
File size : 1.51 GiB
Duration : 51mn 33s
Overall bit rate : 4 197 Kbps
Movie name : Vlad.Listyev.Vzglyad.Cherez.20.Let.2015.HDTV.720p.x264-lrn
Encoded date : UTC 2010-02-22 21:41:31
Writing application : mkvmerge v5.9.0 ('On The Loose') built on Dec 9 2012 15:37:01
Writing library : libebml v1.3.0 + libmatroska v1.4.0
DURATION : 00:51:33.080000000
NUMBER_OF_FRAMES : 77327
NUMBER_OF_BYTES : 1547602152
_STATISTICS_WRITING_APP : mkvmerge v7.0.0 ('Where We Going') 32bit built on Jun 9 2014 15:08:34
_STATISTICS_WRITING_DATE_UT : 2015-03-01 17:18:11
_STATISTICS_TAGS : BPS DURATION NUMBER_OF_FRAMES NUMBER_OF_BYTES

Video
ID : 1
Format : AVC
Format/Info : Advanced Video Codec
Format profile : High@L4.1
Format settings, CABAC : Yes
Format settings, ReFrames : 6 frames
Codec ID : V_MPEG4/ISO/AVC
Duration : 51mn 33s
Bit rate : 4 000 Kbps
Width : 1 280 pixels
Height : 720 pixels
Display aspect ratio : 16:9
Frame rate mode : Constant
Frame rate : 25.000 fps
Color space : YUV
Chroma subsampling : 4:2:0
Bit depth : 8 bits
Scan type : Progressive
Bits/(Pixel*Frame) : 0.174
Stream size : 1.41 GiB (93%)
Writing library : x264 core 142 r2431 ac76440
Encoding settings : cabac=1 / ref=6 / deblock=1:0:0 / analyse=0x3:0x133 / me=umh / subme=9 / psy=1 / psy_rd=1.00:0.00 / mixed_ref=1 / me_range=24 / chroma_me=1 / trellis=2 / 8x8dct=1 / cqm=0 / deadzone=21,11 / fast_pskip=1 / chroma_qp_offset=-2 / threads=12 / lookahead_threads=1 / sliced_threads=0 / nr=0 / decimate=1 / interlaced=0 / bluray_compat=0 / constrained_intra=0 / bframes=6 / b_pyramid=2 / b_adapt=2 / b_bias=0 / direct=3 / weightb=1 / open_gop=0 / weightp=2 / keyint=250 / keyint_min=25 / scenecut=40 / intra_refresh=0 / rc_lookahead=50 / rc=2pass / mbtree=1 / bitrate=4000 / ratetol=1.0 / qcomp=0.60 / qpmin=0 / qpmax=69 / qpstep=4 / cplxblur=20.0 / qblur=0.5 / ip_ratio=1.40 / aq=1:1.00
Default : Yes
Forced : No

Audio
ID : 2
Format : AC-3
Format/Info : Audio Coding 3
Mode extension : CM (complete main)
Format settings, Endianness : Big
Codec ID : A_AC3
Duration : 51mn 33s
Bit rate mode : Constant
Bit rate : 192 Kbps
Channel(s) : 2 channels
Channel positions : Front: L R
Sampling rate : 48.0 KHz
Bit depth : 16 bits
Compression mode : Lossy
Stream size : 70.8 MiB (5%)
Language : Russian
Default : Yes
Forced : No



   Похожие торренты   Торрент   Размер 
В этой теме нет новых непрочитанных сообщений. Влад Листьев. Жизнь быстрее пули (2016) HDTVRip от GeneralFilm

46 | 0

715.63 МБ

В этой теме нет новых непрочитанных сообщений. Влад Листьев. Вспомнить всё (2005) SATRip

2 | 13

606.03 МБ

В этой теме нет новых непрочитанных сообщений. Влад Листьев. Жизнь быстрее пули (2016) HDTV 1080i от GeneralFilm

47 | 0

2.55 ГБ

В этой теме нет новых непрочитанных сообщений. NG: Широкий взгляд с Кэлом Пенном / The Big Picture with Kal Penn [S01] (2015) HDTVRip 720p | P1

0 | 0

6.28 ГБ

В этой теме нет новых непрочитанных сообщений. Взгляд из вечности [01-02 из 04] (2014) HDTVRip 720p от MediaClub

163 | 45

9.72 ГБ

В этой теме нет новых непрочитанных сообщений. Взгляд из вечности [01-02 из 04] (2014) HDTVRip 720p от MediaClub

4 | 3

4.86 ГБ

В этой теме нет новых непрочитанных сообщений. Влад Дарвін і Альоша - Ти найкраща [Клип] (2011) HDTVRip от ExKinoRay

0 | 5

53.44 МБ




Вы не можете начинать темы
Вы не можете отвечать на сообщения
Вы не можете редактировать свои сообщения
Вы не можете удалять свои сообщения
Вы не можете добавлять вложения

Перейти:  
Для Мосгорсуда, Роскомнадзора и рекламодателей: mosgorsud-torrent[собачка]yandex.ru
 Вход
ppkBB3cker v.2 © 2008-2014 @ PPK
[ Time : 0.024s | 16 Queries | GZIP : Off ]

Торрент трекер RUTOR.IN, Не можете зайти на rutor.org? Какой новый адрес рутор? Какое зеркало рутор? Не работает rutor.org и зеркала? Тогда наш торрент специально для вас. Rutor.in неофициальное зеркало rutor. В случае если у Вас заблокирован rutor или вдруг Вы не можете на него зайти, то Вы без труда сможете скачать бесплатно и без рекламы последние новинки кино, игр, сериалов и прочего у нас, на Rutor.in. Не нужно использовать прокси, чтобы зайти на рутор, достаточно воспользоваться нашим ресурсом. Все новые фильмы, игры, сериалы, книги и музыка за 2013 и 2014 годы через торрент бесплатно. Скачивайте фильмы в хорошем качестве, игры для пк, xbox, playstation без регистрации. У нас вы найдете новые Зарубежные сериалы и Русские сериалы 2013, 2014, 2015 годов. Оставайтесь с нами, качайте любимые фильмы, игры, сериалы, книги и музыку.
cron