img image001 image001 image001 image001 image001 image001 image001 image001 image001 image001 image001 image001 image001 image001 image001

Planets Sun Sun Sun
Статистика раздачи
Автор: Nickolas3434 | Размер: 4.39 ГБ | Добавлен: 06 мар 2015
Раздают: 31    Качают: 134
Скачать торрент
Скачать торрент
Описание торрента

СообщениеДобавлено: 06 мар 2015 





Год выпуска: 2015
Страна: Великобритания
Жанр: Авто-шоу,документальный, ток-шоу, комедия.
Продолжительность: 01:02:12
Перевод: Перевод #1: Многоголосый закадровый - Gears Media
Перевод #2: Многоголосый закадровый - Jetvis Studio & RG.paravozik

Перевод #3: Многоголосый закадровый - AlexFilm[/color](Отдельно)

Субтитры: нет

Режиссер:Брайан Клейн, Фил Чурчуорд, Найджел Симпкисс, ...
Продюсер: Энди Уилман, Алекс Рентон, Грант Уордроп, ...
Композитор: Кристиан Хенсон
Художник: Джонатан Пол Грин, Джеймс Роуэлл, Саймон Киммел
Монтаж: Дэн Джеймс, Гай Савин, Джеймс Харт

В ролях: Ричард Хаммонд / Richard Hammond (играет самого себя - Presenter), Джереми Кларксон / Jeremy Clarkson (играет самого себя - Presenter), Джеймс Мэй / James May (играет самого себя - Presenter) , Стиг / The Stig (играет самого себя),

Описание: Джереми, Ричард и Джеймс с неподражаемым юмором рассказывают о самых значимых и интересных новинках автомобильного мира.



Рип чистый. Без посторонних надписей

Качество: HDTVRip
Формат: AVI
Видео кодек: XviD
Аудио кодеk: MP3
Видео: 656x368 (16:9), 25.000 fps, XviD 73, 1175 Kbps
Аудио: Аудио #1: MP3, 128 Kbps, 48.0 KHz, 2 ch -Gears Media
Аудио #2: MP3, 128 Kbps, 48.0 KHz, 2 ch -Jetvis Studio & RG.paravozik
Аудио #3: MP3, 128 Kbps, 48.0 KHz, 2 ch -Eng
b]Аудио #3: MP3, 128 Kbps, 48.0 KHz, 2 ch - |AlexFilm
Код:
Общее
Полное имя                               : E:Top Gear 221.avi
Формат                                   : AVI
Формат/Информация                        : Audio Video Interleave
Размер файла                             : 702 Мбайт
Продолжительность                        : 1 ч. 2 м.
Общий поток                              : 1577 Кбит/сек
Программа кодирования                    : VirtualDubMod 1.5.10.3 | www.virtualdub-fr.org || (build 2550/release)
Библиотека кодирования                   : VirtualDubMod build 2550/release

Видео
Идентификатор                            : 0
Формат                                   : MPEG-4 Visual
Профиль формата                          : Advanced Simple@L5
Параметр BVOP формата                    : 1
Параметр QPel формата                    : Нет
Параметр GMC формата                     : Без точки перехода
Параметр матрицы формата                 : Default (H.263)
Идентификатор кодека                     : XVID
Идентификатор кодека/Подсказка           : XviD
Продолжительность                        : 1 ч. 2 м.
Битрейт                                  : 1175 Кбит/сек
Ширина                                   : 656 пикселей
Высота                                   : 368 пикселей
Соотношение сторон                       : 16:9
Частота кадров                           : 25,000 кадров/сек
Цветовое пространство                    : YUV
Субдискретизация насыщенности            : 4:2:0
Битовая глубина                          : 8 бит
Тип развёртки                            : Прогрессивная
Метод сжатия                             : С потерями
Бит/(Пиксели*Кадры)                      : 0.195
Размер потока                            : 524 Мбайт (75%)
Библиотека кодирования                   : XviD 73

Аудио #1
Идентификатор                            : 1
Формат                                   : MPEG Audio
Версия формата                           : Version 1
Профиль формата                          : Layer 3
Идентификатор кодека                     : 55
Идентификатор кодека/Подсказка           : MP3
Продолжительность                        : 1 ч. 1 м.
Вид битрейта                             : Постоянный
Битрейт                                  : 128 Кбит/сек
Каналы                                   : 2 канала
Частота                                  : 48,0 КГц
Метод сжатия                             : С потерями
Размер потока                            : 56,7 Мбайт (8%)
Выравнивание                             : Соединение по промежуткам
Продолжительность промежутка             : 40  мс. (1,00 видеокадр)
Время предзагрузки промежутка            : 504  мс.
Библиотека кодирования                   : LAME3.99r
Настройки программы                      : -m s -V 4 -q 2 -lowpass 17 -b 128

Аудио #2
Идентификатор                            : 2
Формат                                   : MPEG Audio
Версия формата                           : Version 1
Профиль формата                          : Layer 3
Идентификатор кодека                     : 55
Идентификатор кодека/Подсказка           : MP3
Продолжительность                        : 1 ч. 1 м.
Вид битрейта                             : Постоянный
Битрейт                                  : 128 Кбит/сек
Каналы                                   : 2 канала
Частота                                  : 48,0 КГц
Метод сжатия                             : С потерями
Размер потока                            : 56,7 Мбайт (8%)
Выравнивание                             : Соединение по промежуткам
Продолжительность промежутка             : 40  мс. (1,00 видеокадр)
Время предзагрузки промежутка            : 504  мс.
Библиотека кодирования                   : LAME3.99r
Настройки программы                      : -m s -V 4 -q 2 -lowpass 17 -b 128

Аудио #3
Идентификатор                            : 3
Формат                                   : MPEG Audio
Версия формата                           : Version 1
Профиль формата                          : Layer 3
Идентификатор кодека                     : 55
Идентификатор кодека/Подсказка           : MP3
Продолжительность                        : 1 ч. 2 м.
Вид битрейта                             : Постоянный
Битрейт                                  : 128 Кбит/сек
Каналы                                   : 2 канала
Частота                                  : 48,0 КГц
Метод сжатия                             : С потерями
Размер потока                            : 57,0 Мбайт (8%)
Выравнивание                             : Соединение по промежуткам
Продолжительность промежутка             : 40  мс. (1,00 видеокадр)
Время предзагрузки промежутка            : 504  мс.
Библиотека кодирования                   : LAME3.99r
Настройки программы                      : -m s -V 4 -q 2 -lowpass 17 -b 128


Чтобы начать докачку новой серии, пользователям необходимо сделать следующее:
1) Остановить скачивание,
2) Удалить старый торрент у себя из клиента - старые серии удалять не надо!
3) Скачать новый торрент и запустить его у себя в клиенте вместо старого, при этом указать клиенту путь в старую папку куда и должно происходить скачивание новых серий.
Ваш клиент при этом должен произвести хеширование старой папки (если это не произойдет - нажмите "Обновить хеш"), и будет докачивать только те серии которых у вас ещё нет. Старые файлы при этом не удаляются, а продолжают раздаваться!
По возможности, желательно не удалять старые серии как можно дольше, чтобы релизер не столько продолжал раздавать старые материалы, а смог сконцентрироваться на новых.

[/b]



   Похожие торренты   Торрент   Размер 
В этой теме нет новых непрочитанных сообщений. Топ Гир / Top Gear [22х01-07] (2015) HDTVRip от Semak |AlexFilm, Gears Media, Jetvis Studio & RG.paravozik

165 | 179

5.14 ГБ

В этой теме нет новых непрочитанных сообщений. Топ Гир / Top Gear [22х01-02] (2015) HDTVRip от Semak | Gears Media, Jetvis Studio & RG.paravozik

74 | 23

1.37 ГБ

В этой теме нет новых непрочитанных сообщений. Топ Гир / Top Gear [22х01] (2015) HDTVRip от Semak | Gears Media, Jetvis Studio & RG.paravozik

227 | 8

702.47 МБ

В этой теме нет новых непрочитанных сообщений. Топ Гир / Top Gear [22х01-04] (2015) HDTVRip от Semak | Gears Media, Jetvis Studio & RG.paravozik

24 | 18

2.72 ГБ

В этой теме нет новых непрочитанных сообщений. Топ Гир / Top Gear [S22] (2015) HDTVRip от Semak | AlexFilm, Gears Media, Jetvis Studio & RG.paravozik

356 | 280

6.01 ГБ

В этой теме нет новых непрочитанных сообщений. Топ Гир / Top Gear [S20] (2013) HDTVRip | Gears Media, Jetvis Studio & RG.paravozik

74 | 17

3.69 ГБ

В этой теме нет новых непрочитанных сообщений. Топ Гир / Top Gear [21x01-04] (2014) HDTVRip | Gears Media, Jetvis Studio RG.paravozik

18 | 45

2.58 ГБ




Вы не можете начинать темы
Вы не можете отвечать на сообщения
Вы не можете редактировать свои сообщения
Вы не можете удалять свои сообщения
Вы не можете добавлять вложения

Перейти:  
Для Мосгорсуда, Роскомнадзора и рекламодателей: mosgorsud-torrent[собачка]yandex.ru
 Вход
ppkBB3cker v.2 © 2008-2014 @ PPK
[ Time : 1.145s | 14 Queries | GZIP : Off ]

Торрент трекер RUTOR.IN, Не можете зайти на rutor.org? Какой новый адрес рутор? Какое зеркало рутор? Не работает rutor.org и зеркала? Тогда наш торрент специально для вас. Rutor.in неофициальное зеркало rutor. В случае если у Вас заблокирован rutor или вдруг Вы не можете на него зайти, то Вы без труда сможете скачать бесплатно и без рекламы последние новинки кино, игр, сериалов и прочего у нас, на Rutor.in. Не нужно использовать прокси, чтобы зайти на рутор, достаточно воспользоваться нашим ресурсом. Все новые фильмы, игры, сериалы, книги и музыка за 2013 и 2014 годы через торрент бесплатно. Скачивайте фильмы в хорошем качестве, игры для пк, xbox, playstation без регистрации. У нас вы найдете новые Зарубежные сериалы и Русские сериалы 2013, 2014, 2015 годов. Оставайтесь с нами, качайте любимые фильмы, игры, сериалы, книги и музыку.