img image001 image001 image001 image001 image001 image001 image001 image001 image001 image001 image001 image001 image001 image001 image001

Planets Sun Sun Sun
Статистика раздачи
Автор: Nickolas3434 | Размер: 3.4 ГБ | Добавлен: 08 мар 2015
Раздают: 6    Качают: 2
Скачать торрент
Скачать торрент
Описание торрента

СообщениеДобавлено: 08 мар 2015 

35-я Ежегодная Церемония Вручения Музыкальной Премии "BRIT Awards" / The 35th BRIT Awards


#77
Жанр: Церемония Вручения Наград
Продолжительность: 1:50:58
Дата выпуска: 25.02.2015
Озвучка: Оригинал

Описание: Ежегодная церемония вручения музыкальных наград Великобритании в области поп-музыки, основана Британской ассоциацией производителей фонограмм, является британским эквивалентом премии Грэмми. Впервые вручена в 1977 году (ежегодно вручается с 1982). 35-я церемония вручения музыкальных наград BRIT Awards состоялась 25 февраля, на стадионе O2 Arena в Лондоне.

Автор рипа: lrn
Автор записи: kmfan

Качество: HDTVRip 720p
Контейнер: MKV
Видео: 1280x720 (16:9), 25,000 fps, H264, ~4000 kbps avg, ~0.174 bit/pixel
Аудио: 48 kHz, AC3 Dolby Digital, 2/0 (L,R) ch, ~384.00 kbps avg

01. Taylor Swift - "Blank Space"
02. Sam Smith - "Lay Me Down"
03. Royal Blood - "Figure It Out"
04. Ed Sheeran - "Bloodstream"
05. Kanye West - "All Day"
06. Take That - "Let in the Sun"
07. George Ezra - "Budapest"
08. Paloma Faith - "Only Love Can Hurt Like This"
09. Madonna - "Living for Love"
British Male Solo Artist (presented by Orlando Bloom and Rita Ora):
Ed Sheeran
Damon Albarn
George Ezra
Paolo Nutini
Sam Smith

British Female Solo Artist(presented by Mark Ronson):
Paloma Faith
Ella Henderson
FKA twigs
Jessie Ware
Lily Allen

British Group (presented by Jimmy Page):
Royal Blood
Alt-J
Clean Bandit
Coldplay
One Direction

International Group (presented by John Bishop):
Foo Fighters
5 Seconds of Summer
Black Keys
First Aid Kit
The War on Drugs

British Breakthrough Act (presented by Fearne Cotton and Charli XCX):
Sam Smith
CHVRCHES
FKA twigs
George Ezra
Royal Blood

Critics' Choice:
James Bay
George The Poet
Years & Years

MasterCard British Album of the Year (presented by Russell Crowe):
Ed Sheeran – "X"
Alt-J – "This Is All Yours"
George Ezra - "Wanted on Voyage"
Royal Blood – "Royal Blood"
Sam Smith – "In the Lonely Hour"

British Single of the Year (presented by Lisa Snowdon and Lionel Richie):
Mark Ronson featuring Bruno Mars – "Uptown Funk"
Calvin Harris – "Summer"
Clean Bandit featuring Jess Glynne – "Rather Be"
Ed Sheeran – "Thinking Out Loud"
Ella Henderson – "Ghost"
George Ezra – "Budapest"
Route 94 featuring Jess Glynne – "My Love"
Sam Smith – "Stay with Me"
Sigma – "Nobody to Love"
Duke Dumont featuring Jax Jones – "I Got U"

International Male Solo Artist (presented by Cara Delevingne):
Pharrell Williams
Beck
Hozier
Jack White
John Legend

International Female Solo Artist (presented by Lewis Hamilton and Ellie Goulding):
Taylor Swift
Beyoncé
Lana Del Rey
Sia
St. Vincent

British Producer of the Year:
Paul Epworth
Alison Goldfrapp & Will Gregory
Flood
Jake Gosling

British Video (presented by Jimmy Carr and Karlie Kloss):
One Direction – "You & I"
Ed Sheeran – "Thinking Out Loud"
Mark Ronson featuring Bruno Mars – "Uptown Funk"
Sam Smith – "Stay with Me"
Calvin Harris – "Summer"

BRITs Global Success (presented by Kim Kardashian):
TBA
General
Unique ID : 207321755312018413207976566351093010372 (0x9BF8B7B914444F6EB6B7ABAD6C7B8FC4)
Complete name : E:uTorrent.TempTempThe.35th.BRIT.Awards.2015.HDTV.720p.x264-ENG-lrn.mkv
Format : Matroska
Format version : Version 4 / Version 2
File size : 3.40 GiB
Duration : 1h 50mn
Overall bit rate : 4 386 Kbps
Movie name : The.35th.BRIT.Awards.2015.HDTV.720p.x264-ENG-lrn
Encoded date : UTC 2010-02-22 21:41:31
Writing application : mkvmerge v5.9.0 ('On The Loose') built on Dec 9 2012 15:37:01
Writing library : libebml v1.3.0 + libmatroska v1.4.0
DURATION : 01:50:58.280000000
NUMBER_OF_FRAMES : 166457
NUMBER_OF_BYTES : 3329419433
_STATISTICS_WRITING_APP : mkvmerge v7.0.0 ('Where We Going') 32bit built on Jun 9 2014 15:08:34
_STATISTICS_WRITING_DATE_UT : 2015-03-05 18:46:15
_STATISTICS_TAGS : BPS DURATION NUMBER_OF_FRAMES NUMBER_OF_BYTES
Video
ID : 1
Format : AVC
Format/Info : Advanced Video Codec
Format profile : High@L4.1
Format settings, CABAC : Yes
Format settings, ReFrames : 6 frames
Codec ID : V_MPEG4/ISO/AVC
Duration : 1h 50mn
Bit rate : 4 000 Kbps
Width : 1 280 pixels
Height : 720 pixels
Display aspect ratio : 16:9
Frame rate mode : Constant
Frame rate : 25.000 fps
Color space : YUV
Chroma subsampling : 4:2:0
Bit depth : 8 bits
Scan type : Progressive
Bits/(Pixel*Frame) : 0.174
Stream size : 3.03 GiB (89%)
Writing library : x264 core 142 r2431 ac76440
Encoding settings : cabac=1 / ref=6 / deblock=1:0:0 / analyse=0x3:0x133 / me=umh / subme=9 / psy=1 / psy_rd=1.00:0.00 / mixed_ref=1 / me_range=24 / chroma_me=1 / trellis=2 / 8x8dct=1 / cqm=0 / deadzone=21,11 / fast_pskip=1 / chroma_qp_offset=-2 / threads=12 / lookahead_threads=1 / sliced_threads=0 / nr=0 / decimate=1 / interlaced=0 / bluray_compat=0 / constrained_intra=0 / bframes=6 / b_pyramid=2 / b_adapt=2 / b_bias=0 / direct=3 / weightb=1 / open_gop=0 / weightp=2 / keyint=250 / keyint_min=25 / scenecut=40 / intra_refresh=0 / rc_lookahead=50 / rc=2pass / mbtree=1 / bitrate=4000 / ratetol=1.0 / qcomp=0.60 / qpmin=0 / qpmax=69 / qpstep=4 / cplxblur=20.0 / qblur=0.5 / ip_ratio=1.40 / aq=1:1.00
Default : Yes
Forced : No
Audio
ID : 2
Format : AC-3
Format/Info : Audio Coding 3
Mode extension : CM (complete main)
Format settings, Endianness : Big
Codec ID : A_AC3
Duration : 1h 50mn
Bit rate mode : Constant
Bit rate : 384 Kbps
Channel(s) : 2 channels
Channel positions : Front: L R
Sampling rate : 48.0 KHz
Bit depth : 16 bits
Compression mode : Lossy
Stream size : 305 MiB (9%)
Language : English
Default : Yes
Forced : No



   Похожие торренты   Торрент   Размер 
В этой теме нет новых непрочитанных сообщений. 35-я Ежегодная Церемония Вручения Музыкальной Премии "BRIT Awards" / The 35th BRIT Awards [25.02] (2015) HDTVRip

47 | 5

1.32 ГБ

В этой теме нет новых непрочитанных сообщений. 35-я Ежегодная Церемония Вручения Музыкальной Премии "BRIT Awards" / The 35th BRIT Awards [25.02] (2015) HDTV 1080i

2 | 3

7.76 ГБ

В этой теме нет новых непрочитанных сообщений. 67-я Церемония Вручения Премии Эмми / The 67th Annual Primetime Emmy Awards (2015) HDTVRip 720p | NOVAMEDiA

62 | 6

3.3 ГБ

В этой теме нет новых непрочитанных сообщений. 87-я Церемония Вручения Премии «Оскар» 2015 / The 87th Annual Academy Awards [22.02] (2015) HDTVRip 720p

130 | 27

4.6 ГБ

В этой теме нет новых непрочитанных сообщений. 41-я Церемония Вручения Премии "Peoples Choice Awards 2015" / The 41st Annual Peoples Choice Awards 2015 (2015) HDTVRip 720p

25 | 9

2.43 ГБ

В этой теме нет новых непрочитанных сообщений. 87-я Церемония Вручения Премии «Оскар» 2015 / The 87th Annual Academy Awards [22.02] (2015) HDTVRip 720p | Первый Канал

793 | 19

2.76 ГБ

В этой теме нет новых непрочитанных сообщений. 68-я Церемония Вручения Премии Эмми / The 68th Annual Primetime Emmy Awards (2016) HDTVRip 720p

91 | 36

3 ГБ




Вы не можете начинать темы
Вы не можете отвечать на сообщения
Вы не можете редактировать свои сообщения
Вы не можете удалять свои сообщения
Вы не можете добавлять вложения

Перейти:  
Для Мосгорсуда, Роскомнадзора и рекламодателей: mosgorsud-torrent[собачка]yandex.ru
 Вход
ppkBB3cker v.2 © 2008-2014 @ PPK
[ Time : 0.051s | 15 Queries | GZIP : Off ]

Торрент трекер RUTOR.IN, Не можете зайти на rutor.org? Какой новый адрес рутор? Какое зеркало рутор? Не работает rutor.org и зеркала? Тогда наш торрент специально для вас. Rutor.in неофициальное зеркало rutor. В случае если у Вас заблокирован rutor или вдруг Вы не можете на него зайти, то Вы без труда сможете скачать бесплатно и без рекламы последние новинки кино, игр, сериалов и прочего у нас, на Rutor.in. Не нужно использовать прокси, чтобы зайти на рутор, достаточно воспользоваться нашим ресурсом. Все новые фильмы, игры, сериалы, книги и музыка за 2013 и 2014 годы через торрент бесплатно. Скачивайте фильмы в хорошем качестве, игры для пк, xbox, playstation без регистрации. У нас вы найдете новые Зарубежные сериалы и Русские сериалы 2013, 2014, 2015 годов. Оставайтесь с нами, качайте любимые фильмы, игры, сериалы, книги и музыку.