img image001 image001 image001 image001 image001 image001 image001 image001 image001 image001 image001 image001 image001 image001 image001

Planets Sun Sun Sun
Статистика раздачи
Автор: Nickolas3434 | Размер: 7.76 ГБ | Добавлен: 08 мар 2015
Раздают: 2    Качают: 3
Скачать торрент
Скачать торрент
Описание торрента

СообщениеДобавлено: 08 мар 2015 

35-я Ежегодная Церемония Вручения Музыкальной Премии "BRIT Awards" / The 35th BRIT Awards


#77
Жанр: Церемония Вручения Наград
Продолжительность: 1:50:58
Дата выпуска: 25.02.2015
Озвучка: Оригинал

Описание: Ежегодная церемония вручения музыкальных наград Великобритании в области поп-музыки, основана Британской ассоциацией производителей фонограмм, является британским эквивалентом премии Грэмми. Впервые вручена в 1977 году (ежегодно вручается с 1982). 35-я церемония вручения музыкальных наград BRIT Awards состоялась 25 февраля, на стадионе O2 Arena в Лондоне.

Автор рипа/записи: kmfan

Качество: HDTV 1080i
Контейнер: TS
Видео: 1920x1080 (16:9), 25,000 fps, H264, ~8900 kbps avg, ~0.172 bit/pixel
Аудио #1: 48 kHz, AC3 Dolby Digital, 2/0 (L,R) ch, ~384.00 kbps avg
Аудио #2: 48 kHz, MPA2, 2/0 (L,R) ch, ~192.00 kbps avg

01. Taylor Swift - "Blank Space"
02. Sam Smith - "Lay Me Down"
03. Royal Blood - "Figure It Out"
04. Ed Sheeran - "Bloodstream"
05. Kanye West - "All Day"
06. Take That - "Let in the Sun"
07. George Ezra - "Budapest"
08. Paloma Faith - "Only Love Can Hurt Like This"
09. Madonna - "Living for Love"
British Male Solo Artist (presented by Orlando Bloom and Rita Ora):
Ed Sheeran
Damon Albarn
George Ezra
Paolo Nutini
Sam Smith

British Female Solo Artist(presented by Mark Ronson):
Paloma Faith
Ella Henderson
FKA twigs
Jessie Ware
Lily Allen

British Group (presented by Jimmy Page):
Royal Blood
Alt-J
Clean Bandit
Coldplay
One Direction

International Group (presented by John Bishop):
Foo Fighters
5 Seconds of Summer
Black Keys
First Aid Kit
The War on Drugs

British Breakthrough Act (presented by Fearne Cotton and Charli XCX):
Sam Smith
CHVRCHES
FKA twigs
George Ezra
Royal Blood

Critics' Choice:
James Bay
George The Poet
Years & Years

MasterCard British Album of the Year (presented by Russell Crowe):
Ed Sheeran – "X"
Alt-J – "This Is All Yours"
George Ezra - "Wanted on Voyage"
Royal Blood – "Royal Blood"
Sam Smith – "In the Lonely Hour"

British Single of the Year (presented by Lisa Snowdon and Lionel Richie):
Mark Ronson featuring Bruno Mars – "Uptown Funk"
Calvin Harris – "Summer"
Clean Bandit featuring Jess Glynne – "Rather Be"
Ed Sheeran – "Thinking Out Loud"
Ella Henderson – "Ghost"
George Ezra – "Budapest"
Route 94 featuring Jess Glynne – "My Love"
Sam Smith – "Stay with Me"
Sigma – "Nobody to Love"
Duke Dumont featuring Jax Jones – "I Got U"

International Male Solo Artist (presented by Cara Delevingne):
Pharrell Williams
Beck
Hozier
Jack White
John Legend

International Female Solo Artist (presented by Lewis Hamilton and Ellie Goulding):
Taylor Swift
Beyoncé
Lana Del Rey
Sia
St. Vincent

British Producer of the Year:
Paul Epworth
Alison Goldfrapp & Will Gregory
Flood
Jake Gosling

British Video (presented by Jimmy Carr and Karlie Kloss):
One Direction – "You & I"
Ed Sheeran – "Thinking Out Loud"
Mark Ronson featuring Bruno Mars – "Uptown Funk"
Sam Smith – "Stay with Me"
Calvin Harris – "Summer"

BRITs Global Success (presented by Kim Kardashian):
TBA
General
ID : 2066 (0x812)
Complete name : E:uTorrent.TempTempThe.35th.BRIT.Awards.2015.HDTV.1080i.DD2.0-kmfan.ts
Format : MPEG-TS
File size : 7.76 GiB
Duration : 1h 50mn
Overall bit rate mode : Variable
Overall bit rate : 10.0 Mbps
Video
ID : 2305 (0x901)
Menu ID : 21000 (0x5208)
Format : AVC
Format/Info : Advanced Video Codec
Format profile : Main@L4.0
Format settings, CABAC : Yes
Format settings, ReFrames : 4 frames
Format settings, GOP : M=4, N=33
Codec ID : 27
Duration : 1h 50mn
Bit rate : 8 937 Kbps
Width : 1 920 pixels
Height : 1 080 pixels
Display aspect ratio : 16:9
Frame rate : 25.000 fps
Standard : Component
Color space : YUV
Chroma subsampling : 4:2:0
Bit depth : 8 bits
Scan type : MBAFF
Scan order : Top Field First
Bits/(Pixel*Frame) : 0.172
Stream size : 6.93 GiB (89%)
Color primaries : BT.709
Transfer characteristics : BT.709
Matrix coefficients : BT.709
Color range : Limited
Audio #1
ID : 2306 (0x902)
Menu ID : 21000 (0x5208)
Format : AC-3
Format/Info : Audio Coding 3
Mode extension : CM (complete main)
Format settings, Endianness : Big
Codec ID : 6
Duration : 1h 50mn
Bit rate mode : Constant
Bit rate : 384 Kbps
Channel(s) : 2 channels
Channel positions : Front: L R
Sampling rate : 48.0 KHz
Bit depth : 16 bits
Compression mode : Lossy
Delay relative to video : 23ms
Stream size : 305 MiB (4%)
Language : English
Audio #2
ID : 2307 (0x903)
Menu ID : 21000 (0x5208)
Format : MPEG Audio
Format version : Version 1
Format profile : Layer 2
Codec ID : 4
Duration : 1h 50mn
Bit rate mode : Constant
Bit rate : 192 Kbps
Channel(s) : 2 channels
Sampling rate : 48.0 KHz
Compression mode : Lossy
Delay relative to video : 65ms
Stream size : 152 MiB (2%)
Language : English



   Похожие торренты   Торрент   Размер 
В этой теме нет новых непрочитанных сообщений. 35-я Ежегодная Церемония Вручения Музыкальной Премии "BRIT Awards" / The 35th BRIT Awards [25.02] (2015) HDTVRip 720p

6 | 2

3.4 ГБ

В этой теме нет новых непрочитанных сообщений. 35-я Ежегодная Церемония Вручения Музыкальной Премии "BRIT Awards" / The 35th BRIT Awards [25.02] (2015) HDTVRip

47 | 5

1.32 ГБ

В этой теме нет новых непрочитанных сообщений. 87-я церемония вручения премии «Оскар» 2015 / The 87th Annual Academy Awards [22.02] (2015) HDTV 1080i

38 | 3

6.75 ГБ

В этой теме нет новых непрочитанных сообщений. 86-я церемония вручения премии «Оскар» / The 86th Annual Academy Awards (2014) HDTV 1080i

208 | 95

5.83 ГБ

В этой теме нет новых непрочитанных сообщений. 65-я церемония вручения премии Эмми / The 65th Annual Primetime Emmy Awards (2013) HDTV 1080i от HDClub

0 | 1

5.98 ГБ

В этой теме нет новых непрочитанных сообщений. 67-я Церемония Вручения Премии Эмми 2015 / The 67th Annual Primetime Emmy Awards 2015 (2015) HDTV 1080i от HDClub | P

38 | 15

5.59 ГБ

В этой теме нет новых непрочитанных сообщений. 84 церемония вручения премии «Оскар» / The 84th Annual Academy Awards (2012) HDTV 720p

0 | 2

2.91 ГБ




Вы не можете начинать темы
Вы не можете отвечать на сообщения
Вы не можете редактировать свои сообщения
Вы не можете удалять свои сообщения
Вы не можете добавлять вложения

Перейти:  
Для Мосгорсуда, Роскомнадзора и рекламодателей: mosgorsud-torrent[собачка]yandex.ru
 Вход
ppkBB3cker v.2 © 2008-2014 @ PPK
[ Time : 0.052s | 15 Queries | GZIP : Off ]

Торрент трекер RUTOR.IN, Не можете зайти на rutor.org? Какой новый адрес рутор? Какое зеркало рутор? Не работает rutor.org и зеркала? Тогда наш торрент специально для вас. Rutor.in неофициальное зеркало rutor. В случае если у Вас заблокирован rutor или вдруг Вы не можете на него зайти, то Вы без труда сможете скачать бесплатно и без рекламы последние новинки кино, игр, сериалов и прочего у нас, на Rutor.in. Не нужно использовать прокси, чтобы зайти на рутор, достаточно воспользоваться нашим ресурсом. Все новые фильмы, игры, сериалы, книги и музыка за 2013 и 2014 годы через торрент бесплатно. Скачивайте фильмы в хорошем качестве, игры для пк, xbox, playstation без регистрации. У нас вы найдете новые Зарубежные сериалы и Русские сериалы 2013, 2014, 2015 годов. Оставайтесь с нами, качайте любимые фильмы, игры, сериалы, книги и музыку.