img image001 image001 image001 image001 image001 image001 image001 image001 image001 image001 image001 image001 image001 image001 image001

Planets Sun Sun Sun
Статистика раздачи
Автор: Nickolas3434 | Размер: 1.19 ГБ | Добавлен: 12 мар 2015
Раздают: 31    Качают: 3
Скачать торрент
Скачать торрент
Описание торрента

СообщениеДобавлено: 12 мар 2015 

Оригинальное название: Последняя миссия охотника
Год выпуска: 2015
Жанр: Документальный, биография
Выпущено: Россия, ВГТРК
Режиссер: Леонид Мёдов
О фильме: Март 2011 года. Инженер Андрей Германович Мухин получил приглашение прибыть по адресу Лубянская площадь, дом 2. Здесь размещена Федеральная служба безопасности Российской Федерации. Этого приглашения он ждал всю жизнь...В тот памятный день 2011 года директор Федеральной службы безопасности России Александр Бортников вручил Андрею Мухину орден Отечественной войны первой степени. Этим орденом Указом Президиума Верховного Совета в ноябре 1944 года посмертно был награжден майор госбезопасности Герман Федорович Мухин. В тот день сын узнал о том, как воевал и как погиб его отец. Но где он похоронен? В 2011-м этого никто сказать не мог.Создатели фильма провели уникальное расследование, изучая судьбу разведчика, имя которого только возвращается к нам Герману Мухину было всего 34 года. Он был профессионалом от Бога. Разведчиком и диверсантом. Работал с нелегалами в Европе, воевал на заоблачных вершинах Кавказа и в глубоком тылу врага. Он любил и был любим. Это была счастливая и трагическая жизнь, как у миллионов известных и неизвестных наших соотечественников, навсегда оставшихся на той войне.
Релиз от:
Качество: HDTV 1080i
Видео: MPEG-4 AVC, 3502 Мбит/с, 1920x1080
Аудио: MP2, 2 ch, 192 Кбит/с
Продолжительность: 00:43:00
Язык: Русский
Общее
Идентификатор : 1 (0x1)
Полное имя : C:Последняя миссия охотника.(2015).HDTV.1080i.ts
Формат : MPEG-TS
Размер файла : 1,19 Гбайт
Продолжительность : 43 м.
Режим общего битрейта : Переменный
Общий поток : 3888 Кбит/сек
Видео
Идентификатор : 351 (0x15F)
Идентификатор меню : 1 (0x1)
Формат : AVC
Формат/Информация : Advanced Video Codec
Профиль формата : High@L4.0
Параметр CABAC формата : Да
Параметр ReFrames формата : 4 кадра
Идентификатор кодека : 27
Продолжительность : 43 м.
Битрейт : 3502 Кбит/сек
Ширина : 1920 пикселей
Высота : 1080 пикселей
Соотношение сторон : 16:9
Частота кадров : 25,000 кадров/сек
Цветовое пространство : YUV
Субдискретизация насыщенности : 4:2:0
Битовая глубина : 8 бит
Тип развёртки : Чересстрочная
Порядок развёртки : Верхнее поле первое
Бит/(Пиксели*Кадры) : 0.068
Размер потока : 1,08 Гбайт (90%)
Основные цвета : BT.709
Характеристики трансфера : BT.709
Коэффициенты матрицы : BT.709
colour_range : Limited
Аудио
Идентификатор : 251 (0xFB)
Идентификатор меню : 1 (0x1)
Формат : MPEG Audio
Версия формата : Version 1
Профиль формата : Layer 2
Идентификатор кодека : 3
Продолжительность : 43 м.
Вид битрейта : Постоянный
Битрейт : 192 Кбит/сек
Каналы : 2 канала
Частота : 48,0 КГц
Метод сжатия : С потерями
Размер потока : 60,4 Мбайт (5%)
Язык : English




   Похожие торренты   Торрент   Размер 
В этой теме нет новых непрочитанных сообщений. Последняя миссия Охотника (2014) HDTVRip от Files-х

29 | 4

548.44 МБ

В этой теме нет новых непрочитанных сообщений. Последняя Миссия "Охотника" (2015) HDTVRip 720p

28 | 4

1.29 ГБ

В этой теме нет новых непрочитанных сообщений. Последняя миссия. Операция в Кабуле (2014) HDTV 1080p от MediaClub

86 | 65

1.98 ГБ

В этой теме нет новых непрочитанных сообщений. Марш-Бросок-3: Охота на «Охотника» [03х01-02 из 02] (2014) HDTV 1080i от MediaClub

139 | 26

11.42 ГБ

В этой теме нет новых непрочитанных сообщений. Последняя ночь (2015) HDTV 1080i от Files-x

333 | 59

4.08 ГБ

В этой теме нет новых непрочитанных сообщений. Последняя жертва Анны [01-02 из 02] (2015) HDTV 1080i от MediaClub

105 | 14

10.31 ГБ

В этой теме нет новых непрочитанных сообщений. Последняя сказка Риты (2012) HDTV 1080i от MediaClub

70 | 9

5.88 ГБ




Вы не можете начинать темы
Вы не можете отвечать на сообщения
Вы не можете редактировать свои сообщения
Вы не можете удалять свои сообщения
Вы не можете добавлять вложения

Перейти:  
Для Мосгорсуда, Роскомнадзора и рекламодателей: mosgorsud-torrent[собачка]yandex.ru
 Вход
ppkBB3cker v.2 © 2008-2014 @ PPK
[ Time : 0.045s | 16 Queries | GZIP : Off ]

Торрент трекер RUTOR.IN, Не можете зайти на rutor.org? Какой новый адрес рутор? Какое зеркало рутор? Не работает rutor.org и зеркала? Тогда наш торрент специально для вас. Rutor.in неофициальное зеркало rutor. В случае если у Вас заблокирован rutor или вдруг Вы не можете на него зайти, то Вы без труда сможете скачать бесплатно и без рекламы последние новинки кино, игр, сериалов и прочего у нас, на Rutor.in. Не нужно использовать прокси, чтобы зайти на рутор, достаточно воспользоваться нашим ресурсом. Все новые фильмы, игры, сериалы, книги и музыка за 2013 и 2014 годы через торрент бесплатно. Скачивайте фильмы в хорошем качестве, игры для пк, xbox, playstation без регистрации. У нас вы найдете новые Зарубежные сериалы и Русские сериалы 2013, 2014, 2015 годов. Оставайтесь с нами, качайте любимые фильмы, игры, сериалы, книги и музыку.
cron