img image001 image001 image001 image001 image001 image001 image001 image001 image001 image001 image001 image001 image001 image001 image001

Planets Sun Sun Sun
Статистика раздачи
Автор: Nickolas3434 | Размер: 5.06 ГБ | Добавлен: 29 мар 2015
Раздают: 144    Качают: 16
Скачать торрент
Скачать торрент
Описание торрента

СообщениеДобавлено: 29 мар 2015 

Информация о фильме
Оригинальное название: Идеальный ремонт
Год выпуска: 2015
Жанр: ТВ-Шоу, обучающий, строительство, ремонт
Выпущено: Россия, Первый канал
Ведущие: Наташа Барбье
О фильме: Профессиональный дизайнер Наташа Барбье вместе с командой экспертов приходит в самые обычные квартиры, чтобы создать героям идеальный интерьер. Входя в квартиру, ведущая еще не знакома с героями, но по оформлению и интерьеру пытается составить психологический портрет хозяев: их возраст, увлечения, образ жизни. Действие программы разворачивается не только в квартире героев, но и в студии (она же арт-бюро). Здесь за столом собираются дизайнеры и эксперты. В обсуждениях рождается и выбирается единственно верный идеальный вариант.
Файл
Качество: SATRip
Видео: XviD, ~ 1500 Кбит/с, 704x400
Аудио: MP3, 2 ch, 128 Кбит/с
Размер: 5.06 ГБ
Продолжительность: 10 x ~ 00:51:00
Язык: Русский
Внимание! Раздача ведётся путём добавления новых серий; при каждом добавлении создаётся новый торрент. Чтобы начать докачку новой серии, пользователям необходимо сделать следующее:
(1) остановить скачивание,
(2) удалить старый торрент у себя из клиента (старые серии удалять не надо),
(3) скачать новый торрент и запустить его у себя в клиенте вместо старого, при этом указать клиенту путь в старую папку куда и должно происходить скачивание новых серий.
Ваш клиент при этом должен произвести хеширование (проверку) старой папки (если не производит сам - помогите ему сделать это), и будет докачивать только те серии которых у вас ещё нет. Старые серии при этом не удаляются, а продолжают раздаваться!
Eсли вы уже удалили старые серии, то предотвратить повторную закачку старых серий можно, отжав галочку в соответствующих местах при запуске нового торрента. По возможности, желательно не удалять старые серии как можно дольше чтобы релизёр не столько продолжал раздавать старые серии, а смог сконцентрироваться на новых.
Общее
Полное имя : E:ЗагрузкиIdealniy.remont.(Vupyski.za.2015.god).2015.SATRip.lunkinIdealniy.remont.(2015.01.10).SATRip.by.lunkin.avi
Формат : AVI
Формат/Информация : Audio Video Interleave
Размер файла : 513 Мбайт
Продолжительность : 43 м.
Общий поток : 1641 Кбит/сек
Программа кодирования : Lavf52.39.1
Видео
Идентификатор : 0
Формат : xvid
Идентификатор кодека : xvid
Продолжительность : 43 м.
Битрейт : 1500 Кбит/сек
Ширина : 704 пикселя
Высота : 400 пикселей
Соотношение сторон : 16:9
Частота кадров : 25,000 кадров/сек
Бит/(Пиксели*Кадры) : 0.213
Размер потока : 469 Мбайт (91%)
Аудио
Идентификатор : 1
Формат : MPEG Audio
Версия формата : Version 1
Профиль формата : Layer 3
Режим : Joint stereo
Расширение режима : MS Stereo
Идентификатор кодека : 55
Идентификатор кодека/Подсказка : MP3
Продолжительность : 43 м.
Вид битрейта : Постоянный
Битрейт : 128 Кбит/сек
Каналы : 2 канала
Частота : 48,0 КГц
Метод сжатия : С потерями
Размер потока : 40,0 Мбайт (8%)
Выравнивание : Соединение по промежуткам
Продолжительность промежутка : 24 мс. (0,60 видеокадр)



Rip by lunkin
Техническая поддержка 457822
Релиз от:



   Похожие торренты   Торрент   Размер 
В этой теме нет новых непрочитанных сообщений. Идеальный ремонт [01-22 выпуски] (2013) SATRip

22 | 13

11.51 ГБ

В этой теме нет новых непрочитанных сообщений. Идеальный ремонт [эфир от 17.05] (2014) SATRip

23 | 6

615.9 МБ

В этой теме нет новых непрочитанных сообщений. Идеальный ремонт - Кухня для Татьяны Самойловой [эфир от 04.05] (2014) SATRip

26 | 5

615.49 МБ

В этой теме нет новых непрочитанных сообщений. Квартирный вопрос [Выпуски за 2015, 01-43 выпуски] (2015) SATRip

3 | 2

28.85 ГБ

В этой теме нет новых непрочитанных сообщений. Легенды армии [01-04 выпуски] (2015) SATRip от Generalfilm

33 | 4

1.67 ГБ

В этой теме нет новых непрочитанных сообщений. Легенды армии [01-04 выпуски] (2015) SATRip от Generalfilm

37 | 6

1.98 ГБ

В этой теме нет новых непрочитанных сообщений. Легенды армии [01-04 выпуски] (2015) SATRip от Generalfilm

145 | 12

1.34 ГБ




Вы не можете начинать темы
Вы не можете отвечать на сообщения
Вы не можете редактировать свои сообщения
Вы не можете удалять свои сообщения
Вы не можете добавлять вложения

Перейти:  
Для Мосгорсуда, Роскомнадзора и рекламодателей: mosgorsud-torrent[собачка]yandex.ru
 Вход
ppkBB3cker v.2 © 2008-2014 @ PPK
[ Time : 0.045s | 17 Queries | GZIP : Off ]

cron