img image001 image001 image001 image001 image001 image001 image001 image001 image001 image001 image001 image001 image001 image001 image001

Planets Sun Sun Sun
Статистика раздачи
Автор: Nickolas3434 | Размер: 7.35 ГБ | Добавлен: 05 апр 2015
Раздают: 77    Качают: 9
Скачать торрент
Скачать торрент
Описание торрента

СообщениеДобавлено: 05 апр 2015 

Информация о фильме
Название: Забытая война
Год выхода: 2012-2013
Жанр: Документальный, война, история
Режиссер: Вахтанг Микеладзе
О фильме:
Цикл посвящен столетию Первой мировой войны. Другой век, другие поколения. Ушли участники и свидетели событий, почти нет их детей: закат жизни встречают уже и внуки. Тем выше, настоятельнее долг наш: хранить память, передавать ее правнукам, потомкам. В сериале будут представлены кадры кино-летописи, рассказывающие о событиях на фронтах, фотографии и фоторепортажи, сделанные в тылу.
Страна: Россия
Студия: ТРК "Звезда"
Продолжительность: 12 x ~ 00:43:59
Перевод: Не требуется.
Файл
Кодек: MPEG-4
Качество: IPTVRip
Видео: 704x528 (1.33:1), 25 fps, DivX, ~ 1800 kbps avg, 0.19 bit/pixel
Звук: 48 kHz, MPEG Layer 3, 2 ch, ~192.00 kbps avg
Субтитры: Отсутствуют.
Релиз от: alf62
Семпл
Общее
Имя : Zabytaja.vojna.(01.serija.iz.12).Nakanune.2012.DivX.IPTVRip.alf62.avi
Формат : AVI
Формат/Информация : Audio Video Interleave
Размер файла : 629 Мбайт
Продолжительность : 44 м.
Общий поток : 1999 Кбит/сек
Программа кодирования : VirtualDubMod 1.5.10.3 | www.virtualdub-fr.org || (build 2550/release)
Библиотека кодирования : VirtualDubMod build 2550/release
Видео
Идентификатор : 0
Формат : MPEG-4 Visual
Профиль формата : Advanced Simple@L5
Параметр BVOP формата : 2
Параметр QPel формата : Нет
Параметр GMC формата : Без точки перехода
Параметр матрицы формата : Default (MPEG)
Идентификатор кодека : DX50
Идентификатор кодека/Подсказка : DivX 5
Продолжительность : 44 м.
Битрейт : 1797 Кбит/сек
Ширина : 704 пикселя
Высота : 528 пикселей
Соотношение сторон : 4:3
Частота кадров : 25,000 кадров/сек
Цветовое пространство : YUV
Субдискретизация насыщенности : 4:2:0
Битовая глубина : 8 бит
Тип развёртки : Прогрессивная
Метод сжатия : С потерями
Бит/(Пиксели*Кадры) : 0.193
Размер потока : 566 Мбайт (90%)
Библиотека кодирования : XviD 73
Аудио
Идентификатор : 1
Формат : MPEG Audio
Версия формата : Version 1
Профиль формата : Layer 3
Идентификатор кодека : 55
Идентификатор кодека/Подсказка : MP3
Продолжительность : 44 м.
Вид битрейта : Постоянный
Битрейт : 192 Кбит/сек
Каналы : 2 канала
Частота : 48,0 КГц
Метод сжатия : С потерями
Размер потока : 60,4 Мбайт (10%)
Выравнивание : Соединение по промежуткам
Продолжительность промежутка : 40 мс. (1,00 видеокадр)
Время предзагрузки промежутка : 504 мс.
Библиотека кодирования : LAME3.99r
Настройки программы : -m s -V 4 -q 0 -lowpass 18.6 -b 192
01. Накануне
02. Первые сражения
03. Борьба умов, борьба идей
04. Напрасные надежды
05. Кавказский фронт
06. В ожидании перемен
07. Битва в окопах
08. Брусиловский прорыв
09. Русский корпус во Франции
10. Последняя осень империи
11. Крах
12. Побеждённые победители




   Похожие торренты   Торрент   Размер 
В этой теме нет новых непрочитанных сообщений. Армия. Российская история XX столетия. Забытая война (2003) DVDRip от KinoZalSat

190 | 3

1 ГБ

В этой теме нет новых непрочитанных сообщений. Вторая мировая: Забытая война Китая / World War II: China's Forgotten War [01-02 из 02] (2016) HDTVRip от Files-x

76 | 3

1.38 ГБ

В этой теме нет новых непрочитанных сообщений. Вторая мировая: Забытая война Китая / World War II: China's Forgotten War [01-02 из 02] (2016) HDTVRip 720p от Files-x

96 | 28

2.43 ГБ

В этой теме нет новых непрочитанных сообщений. Чеченская война По ту сторону войны / 5 серий (2005) DVDRip

43 | 14

1.7 ГБ

В этой теме нет новых непрочитанных сообщений. Вторая мировая война - день за днём (96 серий из 96) (2005) DVDRip

313 | 132

32.81 ГБ

В этой теме нет новых непрочитанных сообщений. Война, которой не было. Битва за Луну (2012) IPTVRip от Generalfilm

14 | 1

316.01 МБ

В этой теме нет новых непрочитанных сообщений. Бесшумная война / Тихая война / Безмолвная война / The Silent War (2012) BDRip 720p | L2

3 | 5

5.15 ГБ




Вы не можете начинать темы
Вы не можете отвечать на сообщения
Вы не можете редактировать свои сообщения
Вы не можете удалять свои сообщения
Вы не можете добавлять вложения

Перейти:  
Для Мосгорсуда, Роскомнадзора и рекламодателей: mosgorsud-torrent[собачка]yandex.ru
 Вход
ppkBB3cker v.2 © 2008-2014 @ PPK
[ Time : 0.032s | 16 Queries | GZIP : Off ]

Торрент трекер RUTOR.IN, Не можете зайти на rutor.org? Какой новый адрес рутор? Какое зеркало рутор? Не работает rutor.org и зеркала? Тогда наш торрент специально для вас. Rutor.in неофициальное зеркало rutor. В случае если у Вас заблокирован rutor или вдруг Вы не можете на него зайти, то Вы без труда сможете скачать бесплатно и без рекламы последние новинки кино, игр, сериалов и прочего у нас, на Rutor.in. Не нужно использовать прокси, чтобы зайти на рутор, достаточно воспользоваться нашим ресурсом. Все новые фильмы, игры, сериалы, книги и музыка за 2013 и 2014 годы через торрент бесплатно. Скачивайте фильмы в хорошем качестве, игры для пк, xbox, playstation без регистрации. У нас вы найдете новые Зарубежные сериалы и Русские сериалы 2013, 2014, 2015 годов. Оставайтесь с нами, качайте любимые фильмы, игры, сериалы, книги и музыку.
cron