img image001 image001 image001 image001 image001 image001 image001 image001 image001 image001 image001 image001 image001 image001 image001

Planets Sun Sun Sun
Статистика раздачи
Автор: Nickolas3434 | Размер: 7.4 ГБ | Добавлен: 17 апр 2015
Раздают: 276    Качают: 15
Скачать торрент
Скачать торрент
Описание торрента

СообщениеДобавлено: 17 апр 2015 

Прямая линия с Владимиром Путиным

Дата/Год выпуска: 2015
Страна: Россия
Жанр: общественно-политический
Продолжительность: 03:57:51
Перевод: Не требуется
Русские субтитры: нет
Оригинальная аудиодорожка: русский
Телеканал: 1 канал
Описание: Специальная программа, в ходе которой президент отвечает на вопросы, касающиеся общественно-политической и социально-экономической жизни страны. Задавать вопросы могут не только приглашенные в студию программы гости, но и граждане в ходе прямых включений из городов России.
качество: DVB
формат: MPG
Видео: 4174 Кбит/сек, 720х576, 16:9, 25,000 кадров/сек
Аудио: 192 Кбит/сек, 2 канала, 48,0 КГц
Формат : MPEG-PS
Размер файла : 7,40 Гбайт
Продолжительность : 3 ч. 57 м.
Режим общего битрейта : Переменный
Общий поток : 4454 Кбит/сек
Видео
Идентификатор : 224 (0xE0)
Формат : MPEG Video
Версия формата : Version 2
Профиль формата : Main@Main
Параметр BVOP формата : Да
Параметр матрицы формата : Выборочная
Параметр GOP формата : M=3, N=12
Format_Settings_PictureStructure : Frame
Продолжительность : 3 ч. 57 м.
Вид битрейта : Переменный
Битрейт : 4174 Кбит/сек
Максимальный битрейт : 15,0 Мбит/сек
Ширина : 720 пикселей
Высота : 576 пикселей
Соотношение сторон : 16:9
Частота кадров : 25,000 кадров/сек
Стандарт вещания : PAL
Цветовое пространство : YUV
Субдискретизация насыщенности : 4:2:0
Битовая глубина : 8 бит
Тип развёртки : Чересстрочная
Порядок развёртки : Верхнее поле первое
Метод сжатия : С потерями
Бит/(Пиксели*Кадры) : 0.403
Временной код первого кадра : 00:00:00:00
Оригинал временного кода : Group of pictures header
Размер потока : 6,93 Гбайт (94%)
Gop_OpenClosed_FirstFrame : Closed
Аудио
Идентификатор : 192 (0xC0)
Формат : MPEG Audio
Версия формата : Version 1
Профиль формата : Layer 2
Продолжительность : 3 ч. 57 м.
Вид битрейта : Постоянный
Битрейт : 192 Кбит/сек
Каналы : 2 канала
Частота : 48,0 КГц
Метод сжатия : С потерями
Задержка видео : 14 мс.
Размер потока : 327 Мбайт (4%)



   Похожие торренты   Торрент   Размер 
В этой теме нет новых непрочитанных сообщений. Прямая линия с Владимиром Путиным [16.04] (2015) HDTV 1080i

89 | 5

13.1 ГБ

В этой теме нет новых непрочитанных сообщений. Прямая линия с Владимиром Путиным (2013) DVB

7 | 1

8.93 ГБ

В этой теме нет новых непрочитанных сообщений. Прямая линия с Владимиром Путиным (2014) SATRip | FilmRus

811 | 676

3.03 ГБ

В этой теме нет новых непрочитанных сообщений. Прямая линия с Владимиром Путиным. Online комментарии [РБК-ТВ] [25.04] (2013) WEBRip

1 | 1

836.14 МБ

В этой теме нет новых непрочитанных сообщений. Прямая линия с Владимиром Путиным [эфир от 17.04] (2014) HDTV 1080i

210 | 222

12.96 ГБ

В этой теме нет новых непрочитанных сообщений. Белковский.Прямая линия [14.07] (2015) HDTVRip 720p

27 | 2

1.42 ГБ

В этой теме нет новых непрочитанных сообщений. Белковский.Прямая линия [11.08] (2015) HDTVRip 720p

64 | 9

1.58 ГБ




Вы не можете начинать темы
Вы не можете отвечать на сообщения
Вы не можете редактировать свои сообщения
Вы не можете удалять свои сообщения
Вы не можете добавлять вложения

Перейти:  
Для Мосгорсуда, Роскомнадзора и рекламодателей: mosgorsud-torrent[собачка]yandex.ru
 Вход
ppkBB3cker v.2 © 2008-2014 @ PPK
[ Time : 0.553s | 15 Queries | GZIP : Off ]

Торрент трекер RUTOR.IN, Не можете зайти на rutor.org? Какой новый адрес рутор? Какое зеркало рутор? Не работает rutor.org и зеркала? Тогда наш торрент специально для вас. Rutor.in неофициальное зеркало rutor. В случае если у Вас заблокирован rutor или вдруг Вы не можете на него зайти, то Вы без труда сможете скачать бесплатно и без рекламы последние новинки кино, игр, сериалов и прочего у нас, на Rutor.in. Не нужно использовать прокси, чтобы зайти на рутор, достаточно воспользоваться нашим ресурсом. Все новые фильмы, игры, сериалы, книги и музыка за 2013 и 2014 годы через торрент бесплатно. Скачивайте фильмы в хорошем качестве, игры для пк, xbox, playstation без регистрации. У нас вы найдете новые Зарубежные сериалы и Русские сериалы 2013, 2014, 2015 годов. Оставайтесь с нами, качайте любимые фильмы, игры, сериалы, книги и музыку.