img image001 image001 image001 image001 image001 image001 image001 image001 image001 image001 image001 image001 image001 image001 image001

Planets Sun Sun Sun
Статистика раздачи
Автор: Nickolas3434 | Размер: 13.1 ГБ | Добавлен: 17 апр 2015
Раздают: 89    Качают: 5
Скачать торрент
Скачать торрент
Описание торрента

СообщениеДобавлено: 17 апр 2015 

Прямая линия с Владимиром Путиным 2015

Год выпуска: 2015
Страна: Россия
Жанр: общественно-политический
Продолжительность: 03:57:52
Описание: Программа "Прямая линия с Владимиром Путиным", в ходе которой президент в 12-й раз ответит на вопросы россиян, начнется 17 апреля в полдень по московскому времени. Впервые главе государства можно присылать короткие видеовопросы. Прямую трансляцию будут вести телеканалы "Россия 1", "Россия 24", радиостанции "Вести ФМ", "Радио России" и "Маяк", а также сайт Вести.Ru.
Релиз от:
Качество: HDTV 1080i
Формат: TS
Видео кодек: AVC
Аудио кодек: MPEG1 Layer 2
Видео: 1920x1080 (16:9) 25.000 fps ~ 7 300 Kbps, 0.141 bit/pixel
Аудио: MPEG Audio 48000Hz 2 channels 192 Кбит/сек
Общее
Идентификатор : 1 (0x1)
Полное имя Pryamaya.liniya.s.Vladimirom.Putinym.16.04.2015.HDTV.1080i.Files-x.ts
Формат : MPEG-TS
Размер файла : 13,1 Гбайт
Продолжительность : 3 ч. 57 м.
Режим общего битрейта : Переменный
Общий поток : 7887 Кбит/сек
Видео
Идентификатор : 68 (0x44)
Идентификатор меню : 1 (0x1)
Формат : AVC
Формат/Информация : Advanced Video Codec
Профиль формата : High@L4.0
Параметр CABAC формата : Да
Параметр ReFrames формата : 3 кадра
Параметр GOP формата : M=4, N=28
Идентификатор кодека : 27
Продолжительность : 3 ч. 57 м.
Битрейт : 7303 Кбит/сек
Ширина : 1920 пикселей
Высота : 1080 пикселей
Соотношение сторон : 16:9
Частота кадров : 25,000 кадров/сек
Стандарт вещания : Component
Цветовое пространство : YUV
Субдискретизация насыщенности : 4:2:0
Битовая глубина : 8 бит
Тип развёртки : Чересстрочная
Порядок развёртки : Верхнее поле первое
Бит/(Пиксели*Кадры) : 0.141
Размер потока : 12,1 Гбайт (93%)
Основные цвета : BT.709
Характеристики трансфера : BT.709
Коэффициенты матрицы : BT.709
colour_range : Limited
Аудио
Идентификатор : 69 (0x45)
Идентификатор меню : 1 (0x1)
Формат : MPEG Audio
Версия формата : Version 1
Профиль формата : Layer 2
Идентификатор кодека : 3
Продолжительность : 3 ч. 57 м.
Вид битрейта : Постоянный
Битрейт : 192 Кбит/сек
Каналы : 2 канала
Частота : 48,0 КГц
Метод сжатия : С потерями
Размер потока : 327 Мбайт (2%)
Язык : Russian



   Похожие торренты   Торрент   Размер 
В этой теме нет новых непрочитанных сообщений. Прямая линия с Владимиром Путиным [эфир от 17.04] (2014) HDTV 1080i

210 | 222

12.96 ГБ

В этой теме нет новых непрочитанных сообщений. Прямая линия с Владимиром Путиным [16.04] (2015) DVB

276 | 15

7.4 ГБ

В этой теме нет новых непрочитанных сообщений. Прямая линия с Владимиром Путиным (2013) DVB

7 | 1

8.93 ГБ

В этой теме нет новых непрочитанных сообщений. Прямая линия с Владимиром Путиным (2014) SATRip | FilmRus

811 | 676

3.03 ГБ

В этой теме нет новых непрочитанных сообщений. Прямая линия с Владимиром Путиным. Online комментарии [РБК-ТВ] [25.04] (2013) WEBRip

1 | 1

836.14 МБ

В этой теме нет новых непрочитанных сообщений. Белковский. Прямая линия [19.08] (2015) HDTVRip 720p

76 | 2

504.06 МБ

В этой теме нет новых непрочитанных сообщений. Белковский. Прямая линия [23.07] (2015) HDTVRip 720p

91 | 2

1.42 ГБ




Вы не можете начинать темы
Вы не можете отвечать на сообщения
Вы не можете редактировать свои сообщения
Вы не можете удалять свои сообщения
Вы не можете добавлять вложения

Перейти:  
Для Мосгорсуда, Роскомнадзора и рекламодателей: mosgorsud-torrent[собачка]yandex.ru
 Вход
ppkBB3cker v.2 © 2008-2014 @ PPK
[ Time : 0.063s | 15 Queries | GZIP : Off ]

Торрент трекер RUTOR.IN, Не можете зайти на rutor.org? Какой новый адрес рутор? Какое зеркало рутор? Не работает rutor.org и зеркала? Тогда наш торрент специально для вас. Rutor.in неофициальное зеркало rutor. В случае если у Вас заблокирован rutor или вдруг Вы не можете на него зайти, то Вы без труда сможете скачать бесплатно и без рекламы последние новинки кино, игр, сериалов и прочего у нас, на Rutor.in. Не нужно использовать прокси, чтобы зайти на рутор, достаточно воспользоваться нашим ресурсом. Все новые фильмы, игры, сериалы, книги и музыка за 2013 и 2014 годы через торрент бесплатно. Скачивайте фильмы в хорошем качестве, игры для пк, xbox, playstation без регистрации. У нас вы найдете новые Зарубежные сериалы и Русские сериалы 2013, 2014, 2015 годов. Оставайтесь с нами, качайте любимые фильмы, игры, сериалы, книги и музыку.