img image001 image001 image001 image001 image001 image001 image001 image001 image001 image001 image001 image001 image001 image001 image001

Planets Sun Sun Sun
Статистика раздачи
Автор: Nickolas3434 | Размер: 744.55 МБ | Добавлен: 23 апр 2015
Раздают: 25    Качают: 18
Скачать торрент
Скачать торрент
Описание торрента

СообщениеДобавлено: 23 апр 2015 

Страна: СССР
Производство: Центральная студия документальных фильмов
Жанр: документальный
Год выпуска: 1945
Продолжительность: 0:46:51
Перевод: Не требуется
Cубтитры: нет
Оригинальная аудиодорожка: русский
Режиссер: Илья Копалин
Описание:
ЯЛТИНСКАЯ (КРЫМСКАЯ) КОНФЕРЕНЦИЯ руководителей трех держав — союзников по Антигитлеровской коалиции: от СССР — И. В. Сталин, США — Ф. Д. Рузвельт, Великобритании — У. Черчилль — состоялась 4—11 февраля 1945 г. в Ялте (Крым) на завершающем этапе Второй мировой войны 1939-1945 гг.
Решались военные вопросы и проблема послевоенного устройства Европы. Участники в совместном коммюнике заявили о том, что они определили свои планы в целях окончательного разгрома общего врага и детально спланировали сроки и вопросы координации мощных ударов, которые будут нанесены Германии; договорились об общей политике и планах обращения с нею после ее полного поражения. Германия делилась союзниками на четыре оккупационные зоны — английскую, американскую, советскую и французскую. Предусматривалось установление союзнической администрации и контроля, осуществляемого специально создаваемым органом в составе главнокомандующих трех держав с местом пребывания в Берлине. Требование СССР о немецких репарациях в размере 10 млрд долл. было признано законным. Они должны были поступать в форме вывоза товаров и капиталов, использования людской силы. (Это решение конференции полностью не было выполнено. Кроме того, в СССР вывозилась морально и физически устаревшая техника, что помешало модернизации советской экономики.)





Источник: DVB
Качество видео: SATRip
Формат видео: AVI
Видео: 704x528 (4:3), 25 fps, XviD ~ 2020 kbps avg, 0.217 bit/pixel
Аудио: 48 kHz, Dolby Digital AC3 2.0, 192 kbps
Раздача от:
Общее
Полное имя : Krymskaya.konferenciya.1945.SATRip_[New-team]_by_AVP_Studio.avi
Формат : AVI
Формат/Информация : Audio Video Interleave
Размер файла : 745 Мбайт
Продолжительность : 46 м.
Общий поток : 2222 Кбит/сек
Программа кодирования : VirtualDubModRus 1.5.10.2 (build 2542/release)
Библиотека кодирования : VirtualDubMod build 2542/release
Видео
Идентификатор : 0
Формат : MPEG-4 Visual
Профиль формата : Advanced Simple@L5
Параметр BVOP формата : 1
Параметр QPel формата : Нет
Параметр GMC формата : Без точки перехода
Параметр матрицы формата : Выборочная
Идентификатор кодека : XVID
Идентификатор кодека/Подсказка : XviD
Продолжительность : 46 м.
Битрейт : 2020 Кбит/сек
Ширина : 704 пикселя
Высота : 528 пикселей
Соотношение сторон : 4:3
Частота кадров : 25,000 кадров/сек
Цветовое пространство : YUV
Субдискретизация насыщенности : 4:2:0
Битовая глубина : 8 бит
Тип развёртки : Прогрессивная
Метод сжатия : С потерями
Бит/(Пиксели*Кадры) : 0.217
Размер потока : 677 Мбайт (91%)
Библиотека кодирования : XviD 73
Аудио
Идентификатор : 1
Формат : AC-3
Формат/Информация : Audio Coding 3
Расширение режима : CM (complete main)
Параметр Endianness формата : Big
Идентификатор кодека : 2000
Продолжительность : 46 м.
Вид битрейта : Постоянный
Битрейт : 192 Кбит/сек
Каналы : 2 канала
Расположение каналов : Front: L R
Частота : 48,0 КГц
Битовая глубина : 16 бит
Метод сжатия : С потерями
Размер потока : 64,3 Мбайт (9%)
Выравнивание : Разделение по промежуткам
Продолжительность промежутка : 40 мс. (1,00 видеокадр)
Время предзагрузки промежутка : 500 мс





   Похожие торренты   Торрент   Размер 
В этой теме нет новых непрочитанных сообщений. Крымская конференция (1945) SATRip-AVC от New-Team

210 | 25

744.26 МБ

В этой теме нет новых непрочитанных сообщений. Берлинская конференция (1945) SATRip от New-Team

58 | 7

372.36 МБ

В этой теме нет новых непрочитанных сообщений. Берлинская конференция (1945) SATRip-AVC от New-Team

57 | 5

372.1 МБ

В этой теме нет новых непрочитанных сообщений. Берлинская конференция. 17 июля - 2 августа 1945 года (1945) SATRip от Generalfilm | Цветной

23 | 114

303.03 МБ

В этой теме нет новых непрочитанных сообщений. Близнецы (1945) SATRip от New-Team

43 | 6

1.09 ГБ

В этой теме нет новых непрочитанных сообщений. Близнецы (1945) SATRip от New-Team

29 | 45

744.39 МБ

В этой теме нет новых непрочитанных сообщений. Близнецы (1945) SATRip-AVC от New-Team

33 | 6

1.09 ГБ




Вы не можете начинать темы
Вы не можете отвечать на сообщения
Вы не можете редактировать свои сообщения
Вы не можете удалять свои сообщения
Вы не можете добавлять вложения

Перейти:  
Для Мосгорсуда, Роскомнадзора и рекламодателей: mosgorsud-torrent[собачка]yandex.ru
 Вход
ppkBB3cker v.2 © 2008-2014 @ PPK
[ Time : 0.018s | 16 Queries | GZIP : Off ]

Торрент трекер RUTOR.IN, Не можете зайти на rutor.org? Какой новый адрес рутор? Какое зеркало рутор? Не работает rutor.org и зеркала? Тогда наш торрент специально для вас. Rutor.in неофициальное зеркало rutor. В случае если у Вас заблокирован rutor или вдруг Вы не можете на него зайти, то Вы без труда сможете скачать бесплатно и без рекламы последние новинки кино, игр, сериалов и прочего у нас, на Rutor.in. Не нужно использовать прокси, чтобы зайти на рутор, достаточно воспользоваться нашим ресурсом. Все новые фильмы, игры, сериалы, книги и музыка за 2013 и 2014 годы через торрент бесплатно. Скачивайте фильмы в хорошем качестве, игры для пк, xbox, playstation без регистрации. У нас вы найдете новые Зарубежные сериалы и Русские сериалы 2013, 2014, 2015 годов. Оставайтесь с нами, качайте любимые фильмы, игры, сериалы, книги и музыку.
cron