img image001 image001 image001 image001 image001 image001 image001 image001 image001 image001 image001 image001 image001 image001 image001

Planets Sun Sun Sun
Статистика раздачи
Автор: Nickolas3434 | Размер: 1.4 ГБ | Добавлен: 30 апр 2015
Раздают: 14    Качают: 8
Скачать торрент
Скачать торрент
Описание торрента

СообщениеДобавлено: 30 апр 2015 

The 50th Annual Academy of Country Music Awards


#77
Страна: США | CBS
Жанр: Country
Продолжительность: 2:35:14
Год выпуска: 19.04.2015

Описание: The annual ceremony honoring achievement in country music at AT&T Stadium in Arlington, Texas; Blake Shelton and Luke Bryan host.


Автор рипа/записи: W4F
Сэмпл: sendfile

Качество: HDTVRip-AVC
Контейнер: MP4
Видео: 720x404 (16:9), 29,970 fps, H264, ~1100 kbps avg, ~0.130 bit/pixel
Аудио: 48 kHz, AAC, 2/0 (L,R) ch, ~153.00 kbps avg

General
Complete name : E:uTorrent.TempTempThe.50th.Annual.Academy.of.Country.Music.Awards.2015.HDTV.x264-W4F.mp4
Format : MPEG-4
Format profile : Base Media
Codec ID : isom
File size : 1.40 GiB
Duration : 2h 35mn
Overall bit rate mode : Variable
Overall bit rate : 1 294 Kbps
Encoded date : UTC 2015-04-20 07:00:16
Tagged date : UTC 2015-04-20 07:00:16
Video
ID : 1
Format : AVC
Format/Info : Advanced Video Codec
Format profile : High@L3.1
Format settings, CABAC : Yes
Format settings, ReFrames : 5 frames
Codec ID : avc1
Codec ID/Info : Advanced Video Coding
Duration : 2h 35mn
Bit rate : 1 136 Kbps
Maximum bit rate : 4 275 Kbps
Width : 720 pixels
Height : 404 pixels
Display aspect ratio : 16:9
Frame rate mode : Constant
Frame rate : 29.970 fps
Color space : YUV
Chroma subsampling : 4:2:0
Bit depth : 8 bits
Scan type : Progressive
Bits/(Pixel*Frame) : 0.130
Stream size : 1.23 GiB (88%)
Title : Video
Writing library : x264 core 146 r2538 121396c
Encoding settings : cabac=1 / ref=5 / deblock=1:0:0 / analyse=0x3:0x113 / me=umh / subme=8 / psy=1 / psy_rd=1.00:0.00 / mixed_ref=1 / me_range=16 / chroma_me=1 / trellis=1 / 8x8dct=1 / cqm=0 / deadzone=21,11 / fast_pskip=1 / chroma_qp_offset=-2 / threads=12 / lookahead_threads=2 / sliced_threads=0 / nr=0 / decimate=1 / interlaced=0 / bluray_compat=0 / constrained_intra=0 / bframes=3 / b_pyramid=2 / b_adapt=2 / b_bias=0 / direct=3 / weightb=1 / open_gop=0 / weightp=2 / keyint=250 / keyint_min=25 / scenecut=40 / intra_refresh=0 / rc_lookahead=50 / rc=crf / mbtree=1 / crf=23.0 / qcomp=0.60 / qpmin=0 / qpmax=69 / qpstep=4 / ip_ratio=1.40 / aq=1:1.00
Encoded date : UTC 2015-04-20 07:00:16
Tagged date : UTC 2015-04-20 07:00:43
Color range : Limited
Matrix coefficients : BT.709
Audio
ID : 2
Format : AAC
Format/Info : Advanced Audio Codec
Format profile : LC
Codec ID : 40
Duration : 2h 35mn
Bit rate mode : Variable
Bit rate : 153 Kbps
Maximum bit rate : 175 Kbps
Channel(s) : 2 channels
Channel positions : Front: L R
Sampling rate : 48.0 KHz
Compression mode : Lossy
Stream size : 170 MiB (12%)
Encoded date : UTC 2015-04-20 07:00:40
Tagged date : UTC 2015-04-20 07:00:43



   Похожие торренты   Торрент   Размер 
В этой теме нет новых непрочитанных сообщений. 50-я церемония вручения наград Академии кантри музыки / The 50th Annual Academy of Country Music Awards (2015) HDTVRip 720p

39 | 6

4.21 ГБ

В этой теме нет новых непрочитанных сообщений. 49-я церемония вручения наград Академия кантри музыки / The 49th Annual Academy of Country Music Awards (2014) HDTVRip от egoleshik

37 | 7

2.06 ГБ

В этой теме нет новых непрочитанных сообщений. 48-я церемония вручения наград Академии кантри музыки / The 48th Annual Academy of Country Music Awards (2013) HDTVRip от egoleshik

44 | 12

2.03 ГБ

В этой теме нет новых непрочитанных сообщений. 87-я Церемония Вручения Премии «Оскар» 2015 / The 87th Annual Academy Awards [22.02] (2015) HDTVRip

57 | 9

1.75 ГБ

В этой теме нет новых непрочитанных сообщений. 87-я Церемония Вручения Премии «Оскар» 2015 / The 87th Annual Academy Awards [22.02] (2015) HDTVRip 720p

130 | 27

4.6 ГБ

В этой теме нет новых непрочитанных сообщений. 50-я церемония вручения наград Ассоциации кантри-музыки / 50th Annual CMA Awards (2016) HDTVRip 720p

33 | 22

3.36 ГБ

В этой теме нет новых непрочитанных сообщений. 87-я Церемония Вручения Премии «Оскар» 2015 / The 87th Annual Academy Awards [22.02] (2015) HDTVRip | Первый Канал

200 | 7

1.03 ГБ




Вы не можете начинать темы
Вы не можете отвечать на сообщения
Вы не можете редактировать свои сообщения
Вы не можете удалять свои сообщения
Вы не можете добавлять вложения

Перейти:  
Для Мосгорсуда, Роскомнадзора и рекламодателей: mosgorsud-torrent[собачка]yandex.ru
 Вход
ppkBB3cker v.2 © 2008-2014 @ PPK
[ Time : 2.239s | 17 Queries | GZIP : Off ]

Торрент трекер RUTOR.IN, Не можете зайти на rutor.org? Какой новый адрес рутор? Какое зеркало рутор? Не работает rutor.org и зеркала? Тогда наш торрент специально для вас. Rutor.in неофициальное зеркало rutor. В случае если у Вас заблокирован rutor или вдруг Вы не можете на него зайти, то Вы без труда сможете скачать бесплатно и без рекламы последние новинки кино, игр, сериалов и прочего у нас, на Rutor.in. Не нужно использовать прокси, чтобы зайти на рутор, достаточно воспользоваться нашим ресурсом. Все новые фильмы, игры, сериалы, книги и музыка за 2013 и 2014 годы через торрент бесплатно. Скачивайте фильмы в хорошем качестве, игры для пк, xbox, playstation без регистрации. У нас вы найдете новые Зарубежные сериалы и Русские сериалы 2013, 2014, 2015 годов. Оставайтесь с нами, качайте любимые фильмы, игры, сериалы, книги и музыку.