img image001 image001 image001 image001 image001 image001 image001 image001 image001 image001 image001 image001 image001 image001 image001

Planets Sun Sun Sun
Статистика раздачи
Автор: Nickolas3434 | Размер: 4.43 ГБ | Добавлен: 01 май 2015
Раздают: 1292    Качают: 144
Скачать торрент
Скачать торрент
Описание торрента

СообщениеДобавлено: 01 май 2015 

Президент


#77
Год выпуска: 2015
Страна: Россия
Студия: Россия HD
Жанр: Документальный
Продолжительность: 2:31:10
Режиссер: Саида Медведева

Описание: Фильм-интервью приурочен к 15-летию пребывания у власти Владимира Путина. Картина охватывает период с августа 1999 года до сегодняшних дней и повествует о пути, который страна вместе с Президентом прошла за последние 15 лет. Владимир Путин вспоминает о самых драматических моментах современной российской истории – войне в Чечне, гибели экипажа подводной лодки "Курск", теракте на Дубровке, Крыме…
Рассказ самого Президента, интервью с представителями политических и бизнес-элит страны, документальная хроника, уникальная съемка личных операторов Владимира Путина воссоздают и раскрывают подробности минувшего времени, повествуя о том, как менялось отношение к России и ее лидеру в стране и мире. Экономические кризисы 2008 и 2014 года, Олимпиада в Сочи, формирование оппозиции, Болотная площадь и проспект Сахарова, Майдан…

Автор рипа: lrn
Автор записи: GeneralFilm
Сэмпл: sendfile

Тип релиза: HDTVRip 720p
Контейнер: MKV
Видео: 1280x720 (16:9), 25,000 fps, H264, ~4000 kbps avg, ~0.174 bit/pixel
Аудио: 48 kHz, AC3 Dolby Digital, 2/0 (L,R) ch, ~192.00 kbps avg

General
Unique ID : 177505761463216375996967920021202212602 (0x858A5DBAB792EF98B504C2BB982F16FA)
Complete name : E:uTorrent.TempTempPrezident.2015.HDTV.720p.x264-lrn.mkv
Format : Matroska
Format version : Version 4 / Version 2
File size : 4.43 GiB
Duration : 2h 31mn
Overall bit rate : 4 193 Kbps
Movie name : Prezident.2015.HDTV.720p.x264-lrn
Encoded date : UTC 2010-02-22 21:41:31
Writing application : mkvmerge v5.9.0 ('On The Loose') built on Dec 9 2012 15:37:01
Writing library : libebml v1.3.0 + libmatroska v1.4.0
Video
ID : 1
Format : AVC
Format/Info : Advanced Video Codec
Format profile : High@L4.1
Format settings, CABAC : Yes
Format settings, ReFrames : 8 frames
Codec ID : V_MPEG4/ISO/AVC
Duration : 2h 31mn
Bit rate : 4 000 Kbps
Width : 1 280 pixels
Height : 720 pixels
Display aspect ratio : 16:9
Frame rate mode : Constant
Frame rate : 25.000 fps
Color space : YUV
Chroma subsampling : 4:2:0
Bit depth : 8 bits
Scan type : Progressive
Bits/(Pixel*Frame) : 0.174
Stream size : 4.14 GiB (93%)
Writing library : x264 core 142 r2479 dd79a61
Encoding settings : cabac=1 / ref=8 / deblock=1:-3:-3 / analyse=0x3:0x113 / me=umh / subme=9 / psy=1 / psy_rd=1.00:0.00 / mixed_ref=1 / me_range=32 / chroma_me=1 / trellis=2 / 8x8dct=1 / cqm=0 / deadzone=21,11 / fast_pskip=1 / chroma_qp_offset=-4 / threads=12 / lookahead_threads=2 / sliced_threads=0 / nr=0 / decimate=1 / interlaced=0 / bluray_compat=0 / constrained_intra=0 / bframes=8 / b_pyramid=2 / b_adapt=2 / b_bias=0 / direct=1 / weightb=1 / open_gop=0 / weightp=2 / keyint=250 / keyint_min=25 / scenecut=40 / intra_refresh=0 / rc_lookahead=50 / rc=2pass / mbtree=1 / bitrate=4000 / ratetol=1.0 / qcomp=0.60 / qpmin=0 / qpmax=69 / qpstep=4 / cplxblur=20.0 / qblur=0.5 / vbv_maxrate=62500 / vbv_bufsize=78125 / nal_hrd=none / filler=0 / ip_ratio=1.40 / aq=1:1.00
Default : Yes
Forced : No
Color range : Limited
Color primaries : BT.709
Transfer characteristics : BT.709
Matrix coefficients : BT.709
Audio
ID : 2
Format : AC-3
Format/Info : Audio Coding 3
Mode extension : CM (complete main)
Format settings, Endianness : Big
Codec ID : A_AC3
Duration : 2h 31mn
Bit rate mode : Constant
Bit rate : 192 Kbps
Channel(s) : 2 channels
Channel positions : Front: L R
Sampling rate : 48.0 KHz
Compression mode : Lossy
Delay relative to video : -40ms
Stream size : 208 MiB (5%)
Language : Russian
Default : Yes
Forced : No
raw [info]: 1280x720p 1:1 @ 25/1 fps (cfr)
x264 [info]: using SAR=1/1
x264 [info]: using cpu capabilities: MMX2 SSE2Fast SSSE3 SSE4.2 AVX
x264 [info]: profile High, level 4.1
x264 [info]: frame I:1866 Avg QP:14.37 size: 87280
x264 [info]: frame P:56861 Avg QP:16.93 size: 35071
x264 [info]: frame B:168030 Avg QP:18.82 size: 14149
x264 [info]: consecutive B-frames: 2.1% 3.0% 3.8% 71.8% 4.8% 7.4% 2.3% 4.3% 0.5%
x264 [info]: mb I I16..4: 5.8% 81.0% 13.2%
x264 [info]: mb P I16..4: 3.4% 17.7% 1.5% P16..4: 39.8% 23.2% 10.2% 0.0% 0.0% skip: 4.2%
x264 [info]: mb B I16..4: 0.7% 2.7% 0.2% B16..8: 35.6% 12.2% 2.4% direct:14.1% skip:32.1% L0:45.2% L1:41.6% BI:13.2%
x264 [info]: 8x8 transform intra:77.3% inter:68.2%
x264 [info]: coded y,uvDC,uvAC intra: 69.3% 86.0% 62.2% inter: 26.6% 47.7% 7.4%
x264 [info]: i16 v,h,dc,p: 36% 17% 8% 39%
x264 [info]: i8 v,h,dc,ddl,ddr,vr,hd,vl,hu: 19% 13% 10% 6% 9% 12% 10% 11% 11%
x264 [info]: i4 v,h,dc,ddl,ddr,vr,hd,vl,hu: 21% 12% 9% 7% 11% 13% 10% 9% 8%
x264 [info]: i8c dc,h,v,p: 39% 24% 23% 13%
x264 [info]: Weighted P-Frames: Y:2.6% UV:1.2%
x264 [info]: ref P L0: 47.6% 8.3% 17.9% 7.1% 6.2% 4.9% 4.7% 3.2% 0.1% 0.0%
x264 [info]: ref B L0: 71.2% 13.1% 6.6% 3.6% 3.0% 1.8% 0.8%
x264 [info]: ref B L1: 93.4% 6.6%
x264 [info]: kb/s:3999.43
encoded 226759 frames, 13.14 fps, 3999.43 kb/s



   Похожие торренты   Торрент   Размер 
В этой теме нет новых непрочитанных сообщений. Президент 2042 - Лекция Андрея Зубова [02.06] (2015) HDTVRip 720p

28 | 3

3.22 ГБ

В этой теме нет новых непрочитанных сообщений. Президент 2042 - Лекция Ирины Прохоровой [01.06] (2015) HDTVRip 720p

73 | 14

3.37 ГБ

В этой теме нет новых непрочитанных сообщений. Президент 2042 - Лекция Нины Хрущевой [05.06] (2015) HDTVRip 720p

41 | 12

3.37 ГБ

В этой теме нет новых непрочитанных сообщений. Президент школьного совета моя невеста / Okusama ga Seitokaichou! [01-12 из 12] (2015) HDTVRip 720p | AniDub

102 | 20

1.45 ГБ

В этой теме нет новых непрочитанных сообщений. Президент (2015) HDTVRip от GeneralFilm

5673 | 1052

2.17 ГБ

В этой теме нет новых непрочитанных сообщений. 60 минут. Сюрприз от Порошенко: что скажет ООН украинский президент? (Эфир от 20.09.2017) (ТК Россия-1) [2017, ток-шоу, HDTVRip 720p]

0 | 0

724.6 МБ

В этой теме нет новых непрочитанных сообщений. Отель Президент [01-08 из 08] (2013) HDTVRip от Files-x

68 | 10

4.3 ГБ




Вы не можете начинать темы
Вы не можете отвечать на сообщения
Вы не можете редактировать свои сообщения
Вы не можете удалять свои сообщения
Вы не можете добавлять вложения

Перейти:  
Для Мосгорсуда, Роскомнадзора и рекламодателей: mosgorsud-torrent[собачка]yandex.ru
 Вход
ppkBB3cker v.2 © 2008-2014 @ PPK
[ Time : 0.043s | 16 Queries | GZIP : Off ]

cron