img image001 image001 image001 image001 image001 image001 image001 image001 image001 image001 image001 image001 image001 image001 image001

Planets Sun Sun Sun
Статистика раздачи
Автор: Nickolas3434 | Размер: 1.33 ГБ | Добавлен: 14 май 2015
Раздают: 122    Качают: 4
Скачать торрент
Скачать торрент
Описание торрента

СообщениеДобавлено: 14 май 2015 

В Мае 45-го. Освобождение Праги


#77
Год выпуска: 2015
Страна: Россия
Студия: Россия HD
Жанр: Документальный
Продолжительность: 0:45:18
Режиссер: Элла Тухарели

Описание: 8 мая 1945 года, окрестности Праги. В штабе немецкой группы армии "Центр" царит паника. Он окружен советскими войсками. В это время командующий группой генерал-фельдмаршал Фердинанд Шернер, переодевшись в гражданский костюм, бежит из окружения, бросив своих солдат на произвол судьбы.

Автор рипа: lrn
Автор записи: Generalfilm
Сэмпл: sendfile

Тип релиза: HDTVRip 720p
Контейнер: MKV
Видео: 1280x720 (16:9), 25,000 fps, H264, ~4000 kbps avg, ~0.174 bit/pixel
Аудио: 48 kHz, AC3 Dolby Digital, 2/0 (L,R) ch, ~192.00 kbps avg

General
Unique ID : 170639022861156536937315847143486405238 (0x805FE160A4FD8EABA94D298566D83A76)
Complete name : E:uTorrent.TempTempV.Mae.45go.Osvobojdenie.Pragi.2015.HDTV.720p.x264-lrn.mkv
Format : Matroska
Format version : Version 4 / Version 2
File size : 1.33 GiB
Duration : 45mn 18s
Overall bit rate : 4 194 Kbps
Movie name : V.Mae.45go.Osvobojdenie.Pragi.2015.HDTV.720p.x264-lrn
Encoded date : UTC 2010-02-22 21:41:31
Writing application : mkvmerge v5.9.0 ('On The Loose') built on Dec 9 2012 15:37:01
Writing library : libebml v1.3.0 + libmatroska v1.4.0
DURATION : 00:45:18.240000000
NUMBER_OF_FRAMES : 67956
NUMBER_OF_BYTES : 1359060822
_STATISTICS_WRITING_APP : mkvmerge v7.7.0 ('Six Voices') 32bit built on Feb 28 2015 23:23:00
_STATISTICS_WRITING_DATE_UT : 2015-05-13 14:48:32
_STATISTICS_TAGS : BPS DURATION NUMBER_OF_FRAMES NUMBER_OF_BYTES
Video
ID : 1
Format : AVC
Format/Info : Advanced Video Codec
Format profile : High@L4.1
Format settings, CABAC : Yes
Format settings, ReFrames : 8 frames
Codec ID : V_MPEG4/ISO/AVC
Duration : 45mn 18s
Bit rate : 4 000 Kbps
Width : 1 280 pixels
Height : 720 pixels
Display aspect ratio : 16:9
Frame rate mode : Constant
Frame rate : 25.000 fps
Color space : YUV
Chroma subsampling : 4:2:0
Bit depth : 8 bits
Scan type : Progressive
Bits/(Pixel*Frame) : 0.174
Stream size : 1.24 GiB (93%)
Writing library : x264 core 146 r2538 121396c
Encoding settings : cabac=1 / ref=8 / deblock=1:-3:-3 / analyse=0x3:0x133 / me=umh / subme=9 / psy=1 / psy_rd=1.00:0.00 / mixed_ref=1 / me_range=32 / chroma_me=1 / trellis=2 / 8x8dct=1 / cqm=0 / deadzone=21,11 / fast_pskip=1 / chroma_qp_offset=-2 / threads=12 / lookahead_threads=2 / sliced_threads=0 / nr=0 / decimate=1 / interlaced=0 / bluray_compat=0 / constrained_intra=0 / bframes=8 / b_pyramid=2 / b_adapt=2 / b_bias=0 / direct=3 / weightb=1 / open_gop=0 / weightp=2 / keyint=250 / keyint_min=25 / scenecut=40 / intra_refresh=0 / rc_lookahead=50 / rc=2pass / mbtree=1 / bitrate=4000 / ratetol=1.0 / qcomp=0.60 / qpmin=0 / qpmax=69 / qpstep=4 / cplxblur=20.0 / qblur=0.5 / vbv_maxrate=62500 / vbv_bufsize=78125 / nal_hrd=none / filler=0 / ip_ratio=1.40 / aq=1:1.00
Default : Yes
Forced : No
Audio
ID : 2
Format : AC-3
Format/Info : Audio Coding 3
Mode extension : CM (complete main)
Format settings, Endianness : Big
Codec ID : A_AC3
Duration : 45mn 18s
Bit rate mode : Constant
Bit rate : 192 Kbps
Channel(s) : 2 channels
Channel positions : Front: L R
Sampling rate : 48.0 KHz
Compression mode : Lossy
Stream size : 62.2 MiB (5%)
Language : Russian
Default : Yes
Forced : No
raw [info]: 1280x720p 1:1 @ 25/1 fps (cfr)
x264 [info]: using SAR=1/1
x264 [info]: using cpu capabilities: MMX2 SSE2Fast SSSE3 SSE4.2 AVX
x264 [info]: profile High, level 4.1
x264 [info]: frame I:433 Avg QP:14.54 size: 87375
x264 [info]: frame P:18925 Avg QP:17.54 size: 37751
x264 [info]: frame B:48598 Avg QP:19.60 size: 12486
x264 [info]: consecutive B-frames: 4.5% 8.3% 11.0% 40.6% 14.9% 10.3% 3.6% 4.7% 2.1%
x264 [info]: mb I I16..4: 5.3% 76.1% 18.6%
x264 [info]: mb P I16..4: 3.8% 22.4% 2.2% P16..4: 36.8% 20.5% 10.6% 0.6% 0.1% skip: 3.0%
x264 [info]: mb B I16..4: 0.7% 3.2% 0.3% B16..8: 37.8% 14.1% 2.8% direct:10.0% skip:31.1% L0:41.3% L1:46.7% BI:12.0%
x264 [info]: 8x8 transform intra:78.1% inter:65.5%
x264 [info]: direct mvs spatial:96.4% temporal:3.6%
x264 [info]: coded y,uvDC,uvAC intra: 68.5% 58.7% 27.6% inter: 27.7% 26.9% 1.4%
x264 [info]: i16 v,h,dc,p: 27% 19% 6% 48%
x264 [info]: i8 v,h,dc,ddl,ddr,vr,hd,vl,hu: 18% 14% 10% 6% 9% 10% 11% 9% 12%
x264 [info]: i4 v,h,dc,ddl,ddr,vr,hd,vl,hu: 19% 14% 8% 6% 11% 12% 12% 8% 10%
x264 [info]: i8c dc,h,v,p: 48% 25% 19% 9%
x264 [info]: Weighted P-Frames: Y:10.1% UV:3.9%
x264 [info]: ref P L0: 54.1% 13.9% 14.7% 5.4% 3.9% 3.1% 2.6% 2.0% 0.3% 0.0%
x264 [info]: ref B L0: 78.5% 10.7% 4.8% 2.4% 1.9% 1.1% 0.5%
x264 [info]: ref B L1: 93.5% 6.5%
x264 [info]: kb/s:3999.82
encoded 67956 frames, 13.31 fps, 3999.82 kb/s



   Похожие торренты   Торрент   Размер 
В этой теме нет новых непрочитанных сообщений. В мае 45-го. Освобождение Праги (2015) HDTVRip от Generalfilm

148 | 10

563.58 МБ

В этой теме нет новых непрочитанных сообщений. В мае 45-го. Освобождение Праги (2015) HDTV 1080i от Generalfilm

72 | 6

2.03 ГБ

В этой теме нет новых непрочитанных сообщений. Соколово / Sokolovo ; Освобождение Праги / Osvobozeni Prahy (1974 / 1976) DVDRip

15 | 9

3.8 ГБ

В этой теме нет новых непрочитанных сообщений. Освобождение Европы. Документальный Цикл [01-05 из 05] (2016) HDTVRip 720p

170 | 0

7.67 ГБ

В этой теме нет новых непрочитанных сообщений. Энергия Великой Победы Праги (2015) HDTV 1080i от Generalfilm

83 | 10

1.62 ГБ

В этой теме нет новых непрочитанных сообщений. Освобождение Европы [01-02 из 05] (2016) HDTVRip от GeneralFilm

31 | 1

1.4 ГБ

В этой теме нет новых непрочитанных сообщений. Освобождение Европы [01-02 из 05] (2016) HDTVRip от GeneralFilm

70 | 1

3.48 ГБ




Вы не можете начинать темы
Вы не можете отвечать на сообщения
Вы не можете редактировать свои сообщения
Вы не можете удалять свои сообщения
Вы не можете добавлять вложения

Перейти:  
Для Мосгорсуда, Роскомнадзора и рекламодателей: mosgorsud-torrent[собачка]yandex.ru
 Вход
ppkBB3cker v.2 © 2008-2014 @ PPK
[ Time : 0.049s | 17 Queries | GZIP : On ]

Торрент трекер RUTOR.IN, Не можете зайти на rutor.org? Какой новый адрес рутор? Какое зеркало рутор? Не работает rutor.org и зеркала? Тогда наш торрент специально для вас. Rutor.in неофициальное зеркало rutor. В случае если у Вас заблокирован rutor или вдруг Вы не можете на него зайти, то Вы без труда сможете скачать бесплатно и без рекламы последние новинки кино, игр, сериалов и прочего у нас, на Rutor.in. Не нужно использовать прокси, чтобы зайти на рутор, достаточно воспользоваться нашим ресурсом. Все новые фильмы, игры, сериалы, книги и музыка за 2013 и 2014 годы через торрент бесплатно. Скачивайте фильмы в хорошем качестве, игры для пк, xbox, playstation без регистрации. У нас вы найдете новые Зарубежные сериалы и Русские сериалы 2013, 2014, 2015 годов. Оставайтесь с нами, качайте любимые фильмы, игры, сериалы, книги и музыку.
cron