img image001 image001 image001 image001 image001 image001 image001 image001 image001 image001 image001 image001 image001 image001 image001

Planets Sun Sun Sun
Статистика раздачи
Автор: Nickolas3434 | Размер: 895.33 МБ | Добавлен: 16 май 2015, 20:15
Раздают: 22    Качают: 14
Скачать торрент
Скачать торрент
Описание торрента

СообщениеДобавлено: 16 май 2015, 20:15 

Смак. Алексей Кравченко


#77
Дата Эфира: 16.05.2015
Страна: Россия
Студия: Первый Канал HD | Продюсерский Центр "Наш взгляд"
Жанр: Кулинарное Шоу
Продолжительность: 0:29:50
Режиссер: Павел Судаков
Ведущий: Иван Ургант
Гость программы: Алексей Кравченко

Описание: "Смак" - eженедельная развлекательно-кулинарная программа. На телевизионной кухне ведущий встречает гостей и вместе с ними готовит блюда по их рецептам. Кулинарно-развлекательная программа "Смак" выходит в эфир с 1993 года. Известные актеры, спортсмены, музыканты делятся с ним своими новостями и оригинальными рецептами приготовления блюд. А зрители с удовольствием наблюдают за процессом создания кулинарных шедевров и смеются над шутками ведущего Ивана Урганта.

Автор рипа: lrn
Автор записи: Taz
Сэмпл: sendfile

Тип релиза: HDTVRip 720p
Контейнер: MKV
Видео: 1280x720 (16:9), 25,000 fps, H264, ~4000 kbps avg, ~0.174 bit/pixel
Аудио: 48 kHz, AC3 Dolby Digital, 2/0 (L,R) ch, ~192.00 kbps avg

General
Unique ID : 208335724744482447642051862559232990800 (0x9CBC004696C3F4C3BFE39DC0F0619E50)
Complete name : E:uTorrent.TempTempSmak.Aleksey.Kravchenko.(2015.05.16).HDTV.720p.x264-lrn.mkv
Format : Matroska
Format version : Version 4 / Version 2
File size : 895 MiB
Duration : 29mn 50s
Overall bit rate : 4 194 Kbps
Movie name : Smak.Aleksey.Kravchenko.(2015.05.16).HDTV.720p.x264-lrn
Encoded date : UTC 2010-02-22 21:41:31
Writing application : mkvmerge v5.9.0 ('On The Loose') built on Dec 9 2012 15:37:01
Writing library : libebml v1.3.0 + libmatroska v1.4.0
DURATION : 00:29:50.840000000
NUMBER_OF_FRAMES : 44771
NUMBER_OF_BYTES : 895428601
_STATISTICS_WRITING_APP : mkvmerge v7.7.0 ('Six Voices') 32bit built on Feb 28 2015 23:23:00
_STATISTICS_WRITING_DATE_UT : 2015-05-16 10:20:36
_STATISTICS_TAGS : BPS DURATION NUMBER_OF_FRAMES NUMBER_OF_BYTES
Video
ID : 1
Format : AVC
Format/Info : Advanced Video Codec
Format profile : High@L4.1
Format settings, CABAC : Yes
Format settings, ReFrames : 8 frames
Codec ID : V_MPEG4/ISO/AVC
Duration : 29mn 50s
Bit rate : 4 000 Kbps
Width : 1 280 pixels
Height : 720 pixels
Display aspect ratio : 16:9
Frame rate mode : Constant
Frame rate : 25.000 fps
Color space : YUV
Chroma subsampling : 4:2:0
Bit depth : 8 bits
Scan type : Progressive
Bits/(Pixel*Frame) : 0.174
Stream size : 837 MiB (93%)
Writing library : x264 core 146 r2538 121396c
Encoding settings : cabac=1 / ref=8 / deblock=1:-3:-3 / analyse=0x3:0x133 / me=umh / subme=9 / psy=1 / psy_rd=1.00:0.00 / mixed_ref=1 / me_range=32 / chroma_me=1 / trellis=2 / 8x8dct=1 / cqm=0 / deadzone=21,11 / fast_pskip=1 / chroma_qp_offset=-2 / threads=12 / lookahead_threads=2 / sliced_threads=0 / nr=0 / decimate=1 / interlaced=0 / bluray_compat=0 / constrained_intra=0 / bframes=8 / b_pyramid=2 / b_adapt=2 / b_bias=0 / direct=3 / weightb=1 / open_gop=0 / weightp=2 / keyint=250 / keyint_min=25 / scenecut=40 / intra_refresh=0 / rc_lookahead=50 / rc=2pass / mbtree=1 / bitrate=4000 / ratetol=1.0 / qcomp=0.60 / qpmin=0 / qpmax=69 / qpstep=4 / cplxblur=20.0 / qblur=0.5 / vbv_maxrate=62500 / vbv_bufsize=78125 / nal_hrd=none / filler=0 / ip_ratio=1.40 / aq=1:1.00
Default : Yes
Forced : No
Audio
ID : 2
Format : AC-3
Format/Info : Audio Coding 3
Mode extension : CM (complete main)
Format settings, Endianness : Big
Codec ID : A_AC3
Duration : 29mn 50s
Bit rate mode : Constant
Bit rate : 192 Kbps
Channel(s) : 2 channels
Channel positions : Front: L R
Sampling rate : 48.0 KHz
Compression mode : Lossy
Stream size : 41.0 MiB (5%)
Language : Russian
Default : Yes
Forced : No
raw [info]: 1280x720p 1:1 @ 25/1 fps (cfr)
x264 [info]: using SAR=1/1
x264 [info]: using cpu capabilities: MMX2 SSE2Fast SSSE3 SSE4.2 AVX
x264 [info]: profile High, level 4.1
x264 [info]: frame I:330 Avg QP:18.59 size:146528
x264 [info]: frame P:11426 Avg QP:21.53 size: 46797
x264 [info]: frame B:33015 Avg QP:25.10 size: 9462
x264 [info]: consecutive B-frames: 2.1% 2.8% 6.1% 67.2% 10.7% 9.0% 1.4% 0.6% 0.0%
x264 [info]: mb I I16..4: 6.0% 73.4% 20.6%
x264 [info]: mb P I16..4: 1.8% 8.3% 0.9% P16..4: 45.8% 21.7% 15.3% 0.6% 0.2% skip: 5.3%
x264 [info]: mb B I16..4: 0.2% 0.9% 0.1% B16..8: 41.5% 6.5% 1.5% direct: 5.5% skip:43.9% L0:38.9% L1:46.3% BI:14.8%
x264 [info]: 8x8 transform intra:75.0% inter:58.8%
x264 [info]: direct mvs spatial:97.7% temporal:2.3%
x264 [info]: coded y,uvDC,uvAC intra: 76.6% 78.7% 31.5% inter: 24.1% 21.6% 0.8%
x264 [info]: i16 v,h,dc,p: 27% 16% 5% 52%
x264 [info]: i8 v,h,dc,ddl,ddr,vr,hd,vl,hu: 7% 9% 4% 9% 15% 13% 16% 11% 15%
x264 [info]: i4 v,h,dc,ddl,ddr,vr,hd,vl,hu: 8% 12% 3% 9% 14% 12% 15% 10% 16%
x264 [info]: i8c dc,h,v,p: 31% 27% 20% 23%
x264 [info]: Weighted P-Frames: Y:2.1% UV:1.1%
x264 [info]: ref P L0: 50.6% 16.1% 17.5% 4.6% 3.9% 2.7% 2.6% 1.8% 0.2% 0.0%
x264 [info]: ref B L0: 86.9% 7.7% 2.4% 1.2% 0.9% 0.6% 0.3%
x264 [info]: ref B L1: 96.6% 3.4%
x264 [info]: kb/s:4000.04
encoded 44771 frames, 14.76 fps, 4000.04 kb/s



   Похожие торренты   Торрент   Размер 
В этой теме нет новых непрочитанных сообщений. Ешь и худей! Мария Кравченко [эфир от 24.09] (2011) SATRemux от SilverCinema

0 | 9

368.42 МБ

В этой теме нет новых непрочитанных сообщений. Смак. Дмитрий Харатьян [эфир от 09.12] (2015) SATRip

37 | 6

423.1 МБ

В этой теме нет новых непрочитанных сообщений. Смак. Мария Аронова [эфир от 21.02] (2015) SATRip от -=HD-NET=-

5 | 5

631.87 МБ

В этой теме нет новых непрочитанных сообщений. Смак. Алла Михеева и Александр Гудков [эфир от 08.12] (2015) SATRip

23 | 20

432.15 МБ

В этой теме нет новых непрочитанных сообщений. Синдеева. Алексей Венедиктов [11.07] (2015) HDTVRip 720p

69 | 31

435.64 МБ

В этой теме нет новых непрочитанных сообщений. Смак. Елена Малышева [эфир от 24.09] (2011) SATRip

0 | 1

371.36 МБ

В этой теме нет новых непрочитанных сообщений. Смак. Анна Слю [эфир от 24.03] (2012) SATRemux от SilverCinema

0 | 3

751.89 МБ




Вы не можете начинать темы
Вы не можете отвечать на сообщения
Вы не можете редактировать свои сообщения
Вы не можете удалять свои сообщения
Вы не можете добавлять вложения

Перейти:  
Для Мосгорсуда, Роскомнадзора и рекламодателей: mosgorsud-torrent[собачка]yandex.ru
Настройки
ppkBB3cker v.2 © 2008-2014 @ PPK
[ Time : 0.019s | 16 Queries | GZIP : Off ]
CGP [Extreme] output time : 0.00019s | 0 Queries | GZIP : Off

Торрент трекер RUTOR.IN, Не можете зайти на rutor.org? Какой новый адрес рутор? Какое зеркало рутор? Не работает rutor.org и зеркала? Тогда наш торрент специально для вас. Rutor.in неофициальное зеркало rutor. В случае если у Вас заблокирован rutor или вдруг Вы не можете на него зайти, то Вы без труда сможете скачать бесплатно и без рекламы последние новинки кино, игр, сериалов и прочего у нас, на Rutor.in. Не нужно использовать прокси, чтобы зайти на рутор, достаточно воспользоваться нашим ресурсом. Все новые фильмы, игры, сериалы, книги и музыка за 2013 и 2014 годы через торрент бесплатно. Скачивайте фильмы в хорошем качестве, игры для пк, xbox, playstation без регистрации. У нас вы найдете новые Зарубежные сериалы и Русские сериалы 2013, 2014, 2015 годов. Оставайтесь с нами, качайте любимые фильмы, игры, сериалы, книги и музыку.