img image001 image001 image001 image001 image001 image001 image001 image001 image001 image001 image001 image001 image001 image001 image001

Planets Sun Sun Sun
Статистика раздачи
Автор: Nickolas3434 | Размер: 12.96 ГБ | Добавлен: 18 май 2015
Раздают: 49    Качают: 15
Скачать торрент
Скачать торрент
Описание торрента

СообщениеДобавлено: 18 май 2015 


Информация о фильме
Название: Парад победы и возложение цветов. Москва 2015
Год выхода: 2015
Жанр: Документальный, военный парад
О фильме:
Каждый год 9 мая во многих странах мира отмечают День Победы над немецко-фашистскими захватчиками. Но нигде этот праздник не празднуют с таким размахом, как в России. В 2015 году на 70-летие Дня Победы в Москве планируется самый масштабный и запоминающийся военный парад. Безусловно, каждый хотел бы увидеть это мероприятие своими глазами, однако не у всех есть возможность. В Параде Победы 2015 примут участие также и военнослужащие других стран. Сюда входят представители вооруженных сил Армении, Сербии, Азербайджана, Китая, Киргизии, Индии, Казахстана, Республики Беларусь, Таджикистана. Также впервые за всю историю празднования Дня Победы будут участвовать военнослужащие Монголии. На Параде Победы в 2015 году будет задействовано 194 единицы бронетехники, 143 самолёта и вертолёта, более 15000 военнослужащих. Начнется парад с демонстрации военной техники, которая принесла нам победу 70 лет назад - по Красной площади пройдут легендарные танки Т-34 и самоходные артиллерийский установки СУ-100. После ретро-машин зрители смогут увидеть образцы новейшей российской техники - танк нового поколения «Армата», бронетранспортер «Бумеранг», ракетный комплекс «Бастион» и другие. Так, впервые за всю историю празднования Дня Победы пройдут самоходные артиллерийские установки нового поколения "Коалиция-СВ",комплекс "Корнет-Д", стратегические ракетные комплексы "Ярс" и другие виды боевой техники. В авиационной части парада в 2015 году будет задействован 21 тип авиатехники. Зрители на Красной площади и в онлайн трансляции смогут наблюдать поистине грандиозное зрелище - в небе над Москвой пролетят тяжелые стратегические бомбардировщики Ту-160, Ту-95МС и Ту-22М3, транспортные самолеты Ил-76, Ил-78 и Ан-124, истребители Су-27, Су-30, Су-35 и многие другие. В завершении воздушной части Парада Победы экипажи МиГ-29 выстроят в небе число «70» из 15 самолетов, а штурмовики Су-25 украсят небо над столицей России дымами цветов российского флага... Далее по традиции, к могиле неизвестного солдата будут возложены цветы. И в конце фильма будет произведено памятное фотографирование руководителей стран.
Страна: Россия
Студия: ВГТРК, Первый канал
Продолжительность: 01:49:39
Файл
Кодек: AVC
Качество: HDTVRip 1080p
Видео: 1920x1080, 16500 kbps, 50 fps
Звук: AC3, 6 ch, 384 kbps
Семпл





Общее
Уникальный идентификатор : 186834025725118027359753742548699727520 (0x8C8EECAA8DBB42AEA3F064C2797446A0)
Полное имя : F:Parad.pobedi.Moskva.2015.1080p.50fps.mkv
Формат : Matroska
Версия формата : Version 4 / Version 2
Размер файла : 13,0 Гбайт
Продолжительность : 1 ч. 49 м.
Общий поток : 16,9 Мбит/сек
Дата кодирования : UTC 2015-05-16 18:28:18
Программа кодирования : mkvmerge v7.8.0 ('River Man') 64bit built on Mar 27 2015 16:31:37
Библиотека кодирования : libebml v1.3.1 + libmatroska v1.4.2
Attachements : cover.jpg
Видео
Идентификатор : 1
Формат : AVC
Формат/Информация : Advanced Video Codec
Профиль формата : High@L4.2
Параметр CABAC формата : Да
Параметр ReFrames формата : 4 кадра
Идентификатор кодека : V_MPEG4/ISO/AVC
Продолжительность : 1 ч. 49 м.
Битрейт : 16,5 Мбит/сек
Ширина : 1920 пикселей
Высота : 1080 пикселей
Соотношение сторон : 16:9
Режим частоты кадров : Постоянный
Частота кадров : 50,000 кадров/сек
Цветовое пространство : YUV
Субдискретизация насыщенности : 4:2:0
Битовая глубина : 8 бит
Тип развёртки : Прогрессивная
Бит/(Пиксели*Кадры) : 0.159
Размер потока : 12,4 Гбайт (96%)
Библиотека кодирования : x264 core 146 r2538 121396c
Настройки программы : cabac=1 / ref=4 / deblock=1:-2:-2 / analyse=0x3:0x133 / me=umh / subme=11 / psy=1 / psy_rd=1.00:0.00 / mixed_ref=1 / me_range=32 / chroma_me=1 / trellis=2 / 8x8dct=1 / cqm=0 / deadzone=21,11 / fast_pskip=0 / chroma_qp_offset=-2 / threads=18 / lookahead_threads=1 / sliced_threads=0 / nr=0 / decimate=1 / interlaced=0 / bluray_compat=0 / constrained_intra=0 / bframes=2 / b_pyramid=2 / b_adapt=2 / b_bias=0 / direct=3 / weightb=1 / open_gop=0 / weightp=2 / keyint=500 / keyint_min=50 / scenecut=0 / intra_refresh=0 / rc_lookahead=100 / rc=2pass / mbtree=1 / bitrate=16500 / ratetol=10.0 / qcomp=0.70 / qpmin=0 / qpmax=51 / qpstep=4 / cplxblur=20.0 / qblur=0.5 / vbv_maxrate=62500 / vbv_bufsize=78125 / nal_hrd=none / filler=0 / ip_ratio=1.40 / aq=1:0.80
Язык : Russian
Default : Да
Forced : Нет
Аудио
Идентификатор : 2
Формат : AC-3
Формат/Информация : Audio Coding 3
Расширение режима : CM (complete main)
Параметр Endianness формата : Big
Идентификатор кодека : A_AC3
Продолжительность : 1 ч. 49 м.
Вид битрейта : Постоянный
Битрейт : 384 Кбит/сек
Каналы : 6 каналов
Расположение каналов : Front: L C R, Side: L R, LFE
Частота : 48,0 КГц
Битовая глубина : 16 бит
Метод сжатия : С потерями
Задержка видео : 40 мс.
Размер потока : 301 Мбайт (2%)
Язык : Russian
Default : Да
Forced : Нет

Релиз от:



   Похожие торренты   Торрент   Размер 
В этой теме нет новых непрочитанных сообщений. Парад Победы с Возложением Цветов к Могиле Неизвестного Солдата. Москва. Красная Площадь (2015) HDTVRip 720p

889 | 78

3.06 ГБ

В этой теме нет новых непрочитанных сообщений. Парад Победы + Возложение цветов к могиле Неизвестного солдата. Москва. Красная площадь (2015) HDTVRip

2562 | 164

1.45 ГБ

В этой теме нет новых непрочитанных сообщений. Парад Победы - Москва. Красная площадь. Парад, посвященный 66-й годовщине Победы (09.05.2011) SATRip от Generalfilm

0 | 4

600.81 МБ

В этой теме нет новых непрочитанных сообщений. Парад Победы. Москва. Красная Площадь (2016) HDTVRip-AVC

0 | 0

813.04 МБ

В этой теме нет новых непрочитанных сообщений. Парад Победы. Москва. Красная площадь (2016) HDTVRip

1 | 0

817.95 МБ

В этой теме нет новых непрочитанных сообщений. Парад Победы. Москва. Красная площадь (2017) HDTVRip

0 | 0

744.2 МБ

В этой теме нет новых непрочитанных сообщений. Парад Победы. Москва. Красная Площадь (2013) HDTVRip

6 | 6

977.92 МБ




Вы не можете начинать темы
Вы не можете отвечать на сообщения
Вы не можете редактировать свои сообщения
Вы не можете удалять свои сообщения
Вы не можете добавлять вложения

Перейти:  
Для Мосгорсуда, Роскомнадзора и рекламодателей: mosgorsud-torrent[собачка]yandex.ru
 Вход
ppkBB3cker v.2 © 2008-2014 @ PPK
[ Time : 0.036s | 15 Queries | GZIP : Off ]

Торрент трекер RUTOR.IN, Не можете зайти на rutor.org? Какой новый адрес рутор? Какое зеркало рутор? Не работает rutor.org и зеркала? Тогда наш торрент специально для вас. Rutor.in неофициальное зеркало rutor. В случае если у Вас заблокирован rutor или вдруг Вы не можете на него зайти, то Вы без труда сможете скачать бесплатно и без рекламы последние новинки кино, игр, сериалов и прочего у нас, на Rutor.in. Не нужно использовать прокси, чтобы зайти на рутор, достаточно воспользоваться нашим ресурсом. Все новые фильмы, игры, сериалы, книги и музыка за 2013 и 2014 годы через торрент бесплатно. Скачивайте фильмы в хорошем качестве, игры для пк, xbox, playstation без регистрации. У нас вы найдете новые Зарубежные сериалы и Русские сериалы 2013, 2014, 2015 годов. Оставайтесь с нами, качайте любимые фильмы, игры, сериалы, книги и музыку.
cron