img image001 image001 image001 image001 image001 image001 image001 image001 image001 image001 image001 image001 image001 image001 image001

Planets Sun Sun Sun
Статистика раздачи
Автор: Nickolas3434 | Размер: 3.42 ГБ | Добавлен: 06 июн 2015
Раздают: 193    Качают: 59
Скачать торрент
Скачать торрент
Описание торрента

СообщениеДобавлено: 06 июн 2015 


Информация о фильме
Название: Президент 2042 - Лекция Владимира Жириновского
Год выхода : 03-06-2015
Страна : Россия
Студия : Телеканал "Дождь"
Продолжительность: 01:34:00


Описание:
Лекция обо всем.
Качество: TVRip
Формат: FLV
Видео кодек: h264
Аудио кодек: MP3
Видео: MPEG4 Video (H264) 1280x720 30fps 4930kbps [V: h264 high L3.1, yuv420p, 1280x720, 4930 kb/s]
Аудио :
AAC 48000Hz stereo 159kbps [A: aac, 48000 Hz, stereo, 159 kb/s]

Общее
Полное имя : Президент 2042 - Лекция Владимира ЖириновскогоПрезидент 2042 - Лекция Владимира Жириновского 1.flv
Формат : Flash Video
Размер файла : 511 Мбайт
Продолжительность : 13 м.
Общий поток : 5100 Кбит/сек
Пометившая программа : Yet Another Metadata Injector for FLV - Version 1.9
Видео
Формат : AVC
Формат/Информация : Advanced Video Codec
Профиль формата : High@L3.1
Параметр CABAC формата : Да
Параметр ReFrames формата : 1 кадр
Параметр GOP формата : M=1, N=12
Идентификатор кодека : 7
Продолжительность : 13 м.
Битрейт : 4815 Кбит/сек
Ширина : 1280 пикселей
Высота : 720 пикселей
Соотношение сторон : 16:9
Режим частоты кадров : Постоянный
Частота кадров : 30,000 кадров/сек
Стандарт вещания : Component
Цветовое пространство : YUV
Субдискретизация насыщенности : 4:2:0
Битовая глубина : 8 бит
Тип развёртки : Прогрессивная
Бит/(Пиксели*Кадры) : 0.174
Размер потока : 494 Мбайт (97%)
colour_range : Limited
Аудио
Формат : AAC
Формат/Информация : Advanced Audio Codec
Профиль формата : LC
Идентификатор кодека : 10
Продолжительность : 13 м.
Битрейт : 156 Кбит/сек
Каналы : 2 канала
Расположение каналов : Front: L R
Частота : 48,0 КГц
Метод сжатия : С потерями
Задержка видео : 4 с. 546 мс.
Размер потока : 16,4 Мбайт (3%)
[/u]



   Похожие торренты   Торрент   Размер 
В этой теме нет новых непрочитанных сообщений. «Президент 2042». Лекция Владимира Войновича [18-05] (2015) TVRip-AVC

151 | 13

1.22 ГБ

В этой теме нет новых непрочитанных сообщений. Президент 2042. Лекция Глеба Павловского (2015) TVRip-AVC

93 | 16

1.11 ГБ

В этой теме нет новых непрочитанных сообщений. Президент 2042 - Лекция Дмитрия Орлова [04.06] (2015) TVRip

12 | 3

784.55 МБ

В этой теме нет новых непрочитанных сообщений. Президент 2042 - Лекция Дмитрия Орлова [04.06] (2015) TVRip

46 | 15

966.98 МБ

В этой теме нет новых непрочитанных сообщений. Президент 2042 - Лекция Сергея Зверева [27.05] (2015) TVRip-AVC

55 | 13

572.09 МБ

В этой теме нет новых непрочитанных сообщений. Президент 2042 - Лекция Григория Шведова [29.05] (2015) TVRip

51 | 7

1.07 ГБ

В этой теме нет новых непрочитанных сообщений. Президент 2042. Лекция Екатерины Шульман (2015) TVRip-AVC

52 | 17

1.12 ГБ




Вы не можете начинать темы
Вы не можете отвечать на сообщения
Вы не можете редактировать свои сообщения
Вы не можете удалять свои сообщения
Вы не можете добавлять вложения

Перейти:  
Для Мосгорсуда, Роскомнадзора и рекламодателей: mosgorsud-torrent[собачка]yandex.ru
 Вход
ppkBB3cker v.2 © 2008-2014 @ PPK
[ Time : 0.030s | 14 Queries | GZIP : Off ]

Торрент трекер RUTOR.IN, Не можете зайти на rutor.org? Какой новый адрес рутор? Какое зеркало рутор? Не работает rutor.org и зеркала? Тогда наш торрент специально для вас. Rutor.in неофициальное зеркало rutor. В случае если у Вас заблокирован rutor или вдруг Вы не можете на него зайти, то Вы без труда сможете скачать бесплатно и без рекламы последние новинки кино, игр, сериалов и прочего у нас, на Rutor.in. Не нужно использовать прокси, чтобы зайти на рутор, достаточно воспользоваться нашим ресурсом. Все новые фильмы, игры, сериалы, книги и музыка за 2013 и 2014 годы через торрент бесплатно. Скачивайте фильмы в хорошем качестве, игры для пк, xbox, playstation без регистрации. У нас вы найдете новые Зарубежные сериалы и Русские сериалы 2013, 2014, 2015 годов. Оставайтесь с нами, качайте любимые фильмы, игры, сериалы, книги и музыку.