img image001 image001 image001 image001 image001 image001 image001 image001 image001 image001 image001 image001 image001 image001 image001

Planets Sun Sun Sun
Статистика раздачи
Автор: Nickolas3434 | Размер: 984.54 МБ | Добавлен: 10 июн 2015
Раздают: 23    Качают: 3
Скачать торрент
Скачать торрент
Описание торрента

СообщениеДобавлено: 10 июн 2015 


Информация о фильме
Название: Медведь / Мядзведзь
Год выхода: 199Х
Жанр: Комедия
Режиссер: Витаутас Григалюнас
В ролях:
Елена Ивановна Попова - Светлана Никифорова
Григорий Степанович Смирнов - Артур Шуляк
Лука - заслуженный артист России, Олег Корчиков
О фильме:
«Медведь» — шутка в одном действии Антона Павловича Чехова. Завершена в феврале 1888 года. Посвящена Н. Н. Соловцову.
К помещице Поповой Елене Ивановне, тяжело скорбящей о смерти супруга, неожиданно приезжает хозяин соседнего поместья — отставной поручик артиллерии Григорий Степанович Смирнов. Он отчаянно нуждается в деньгах и требует немедленно вернуть долг покойного мужа Елены Ивановны. Помещица в связи с отъездом приказчика по делам, просит подождать пару дней. Смирнову необходимо заплатить проценты по закладной и он отказывается покидать дом помещицы пока не получит долг, а получив отказ — затевает ссору и вызывает вдову на дуэль. Попова принимает вызов, приносит пистолеты и просит Смирнова научить её стрелять. Действия Елены Ивановны приводят помещика в восторг, мало того, он в неё влюбляется и тут же признается ей в любви. Попова отвечает ему взаимностью.
Исходник для данной раздачи, записан с цифрового наземного канала, т.е. DVB-Т, любезно предоставлен PavelDAS
За что ему большое спасибо!
Помощь с описанием: Bartimeyse
Запись потока *.ts с наземного цифрового телеканала "Беларусь 3", ремукс в *.mkv программой VideoReDo.

Страна: Республика Беларусь
Студия: Белтелерадиокомпания
Продолжительность: 00:57:04
Перевод: Не требуется
Интертитры: Белорусский
Язык: Русский
Файл
Кодек: AVC (H264)
Качество: DVB
Формат видео: MKV
Видео: AVC (H264), 720x576 (4:3), 25 fps, 2 098 Kbps
Звук: MP2, 256 kbps, 2 channels, 48 kHz
Семпл: http://rusfolder.com/43774304
General
Unique ID : 48770356996649346309978408324045666472 (0x24B0D43F7E463ED0153A59B090FAF8A8)
Complete name : D:Новая земля 2ТелеспектаклиМядзведзь (199x)Мядзведзь (199x).mkv
Format : Matroska
Format version : Version 2
File size : 985 MiB
Duration : 57mn 3s
Overall bit rate : 2 412 Kbps
Writing application : Lavf52.64.2
Writing library : Lavf52.64.2
Video
ID : 1
Format : AVC
Format/Info : Advanced Video Codec
Format profile : Main@L3.0
Format settings, CABAC : Yes
Format settings, ReFrames : 4 frames
Format settings, GOP : M=4, N=24
Codec ID : V_MPEG4/ISO/AVC
Duration : 57mn 3s
Bit rate : 2 108 Kbps
Width : 720 pixels
Height : 576 pixels
Display aspect ratio : 4:3
Original display aspect rat : 4:3
Frame rate mode : Constant
Frame rate : 25.000 fps
Standard : PAL
Color space : YUV
Chroma subsampling : 4:2:0
Bit depth : 8 bits
Scan type : MBAFF
Scan order : Top Field First
Bits/(Pixel*Frame) : 0.203
Stream size : 860 MiB (87%)
Default : Yes
Forced : No
Color primaries : BT.601 PAL
Transfer characteristics : BT.470 System B, BT.470 System G
Matrix coefficients : BT.601
Color range : Limited
Audio
ID : 2
Format : MPEG Audio
Format version : Version 1
Format profile : Layer 2
Codec ID : A_MPEG/L2
Codec ID/Hint : MP2
Duration : 57mn 3s
Bit rate mode : Constant
Bit rate : 256 Kbps
Channel(s) : 2 channels
Sampling rate : 48.0 KHz
Compression mode : Lossy
Stream size : 104 MiB (11%)
Language : English
Default : Yes
Forced : No




   Похожие торренты   Торрент   Размер 
В этой теме нет новых непрочитанных сообщений. Александр Медведь. Человек-легенда (2012) SATRip от AND03AND

125 | 11

369.77 МБ

В этой теме нет новых непрочитанных сообщений. Балет и Опера - Кто я? / Медведь / Юбилейный вечер к 80-летию Сергея Кортеса (2015) DVB от AND03AND

2 | 7

1.49 ГБ

В этой теме нет новых непрочитанных сообщений. Маша и Медведь. Пещерный медведь [48] (2015) WEB-DL 1080p от GeneralFilm

942 | 39

184.56 МБ

В этой теме нет новых непрочитанных сообщений. Маша и Медведь. Пещерный медведь [48 серия] (2015) WEB-DLRip

6863 | 995

96.08 МБ

В этой теме нет новых непрочитанных сообщений. Маша и Медведь. Пещерный медведь [48] (2015) WEB-DL 720p

17357 | 1915

100.22 МБ

В этой теме нет новых непрочитанных сообщений. Маша и Медведь. Пещерный медведь [48] (2015) WEB-DLRip

7621 | 722

97.91 МБ

В этой теме нет новых непрочитанных сообщений. Маша и медведь+Машкини срашилки. / Маша и медведь+Машкины страшилки [1-61, 1-17] (2009-2017) BDRip, WEB-DLRip

50 | 14

12.62 ГБ




Вы не можете начинать темы
Вы не можете отвечать на сообщения
Вы не можете редактировать свои сообщения
Вы не можете удалять свои сообщения
Вы не можете добавлять вложения

Перейти:  
Для Мосгорсуда, Роскомнадзора и рекламодателей: mosgorsud-torrent[собачка]yandex.ru
 Вход
ppkBB3cker v.2 © 2008-2014 @ PPK
[ Time : 0.032s | 15 Queries | GZIP : Off ]

Торрент трекер RUTOR.IN, Не можете зайти на rutor.org? Какой новый адрес рутор? Какое зеркало рутор? Не работает rutor.org и зеркала? Тогда наш торрент специально для вас. Rutor.in неофициальное зеркало rutor. В случае если у Вас заблокирован rutor или вдруг Вы не можете на него зайти, то Вы без труда сможете скачать бесплатно и без рекламы последние новинки кино, игр, сериалов и прочего у нас, на Rutor.in. Не нужно использовать прокси, чтобы зайти на рутор, достаточно воспользоваться нашим ресурсом. Все новые фильмы, игры, сериалы, книги и музыка за 2013 и 2014 годы через торрент бесплатно. Скачивайте фильмы в хорошем качестве, игры для пк, xbox, playstation без регистрации. У нас вы найдете новые Зарубежные сериалы и Русские сериалы 2013, 2014, 2015 годов. Оставайтесь с нами, качайте любимые фильмы, игры, сериалы, книги и музыку.
cron